<?xml version="1.0" standalone="no"?>
<!DOCTYPE svg PUBLIC "-//W3C//DTD SVG 1.1//EN" "http://www.w3.org/Graphics/SVG/1.1/DTD/svg11.dtd" >
<svg xmlns="http://www.w3.org/2000/svg">
<metadata></metadata>
<defs>
<font id="roboto_condensedbold" horiz-adv-x="995" >
<font-face units-per-em="2048" ascent="1638" descent="-410" />
<missing-glyph horiz-adv-x="449" />
<glyph unicode="fi" horiz-adv-x="1107" d="M151 0v876h-133v206h133v70q0 207 112 318t316 111q70 0 138.5 -15t153.5 -44l-40 -232q-65 22 -115.5 34t-118.5 12q-80 0 -121 -47t-41 -137v-70h173v-206h-173v-876h-284zM1001 0h-285v1082h285v-1082z" />
<glyph horiz-adv-x="16" />
<glyph unicode="&#x9;" horiz-adv-x="16" />
<glyph unicode=" "  horiz-adv-x="449" />
<glyph unicode="&#x09;" horiz-adv-x="449" />
<glyph unicode="&#xa0;" horiz-adv-x="449" />
<glyph unicode="!" horiz-adv-x="506" d="M397 506h-285v950h285v-950zM395 0h-280v258h280v-258z" />
<glyph unicode="&#x22;" horiz-adv-x="602" d="M249 1297l-74 -251h-124v514h198v-263zM548 1297l-74 -251h-123l1 247v267h196v-263z" />
<glyph unicode="#" horiz-adv-x="1034" d="M538 410h-136l-59 -410h-173l59 410h-185v166h209l43 298h-189v166h213l61 416h172l-60 -416h136l60 416h173l-60 -416h186v-166h-210l-43 -298h189v-166h-213l-59 -410h-173zM426 576h136l43 298h-136z" />
<glyph unicode="$" horiz-adv-x="1019" d="M651 381q0 84 -33 133t-115 96q-194 86 -285.5 183t-91.5 279q0 166 93.5 274t250.5 127v212h144v-215q149 -28 236.5 -148.5t87.5 -313.5h-284q0 117 -35 180t-92 63q-59 0 -88 -50t-29 -130q0 -76 32.5 -125t117.5 -97q192 -91 283.5 -189t91.5 -277q0 -171 -92 -275.5 t-248 -123.5v-199h-145v199q-161 20 -266 135t-105 337h284q0 -135 44 -193.5t115 -58.5q63 0 96 49t33 128z" />
<glyph unicode="%" horiz-adv-x="1356" d="M90 1176q0 129 74.5 215t209.5 86q137 0 211 -85.5t74 -215.5v-77q0 -130 -74 -214.5t-209 -84.5q-136 0 -211 85t-75 214v77zM276 1099q0 -57 26 -96.5t74 -39.5q46 0 71.5 39t25.5 97v77q0 58 -26 98t-73 40t-72.5 -40.5t-25.5 -97.5v-77zM700 357q0 128 75 214t210 86 q137 0 211 -85.5t74 -214.5v-77q0 -130 -74 -215t-209 -85q-136 0 -211.5 85t-75.5 215v77zM887 280q0 -56 28.5 -97t71.5 -40q55 -1 76 36t21 101v77q0 57 -26 97t-73 40q-48 0 -73 -40t-25 -97v-77zM417 110l-134 74l601 1138l134 -74z" />
<glyph unicode="&#x26;" horiz-adv-x="1221" d="M59 388q0 118 57.5 203.5t175.5 178.5q-62 94 -92 170.5t-30 156.5q0 171 98.5 275.5t262.5 104.5q142 0 232.5 -98.5t90.5 -238.5q0 -97 -43.5 -177.5t-117.5 -139.5l-81 -65l230 -304l6 1q27 52 42.5 117.5t15.5 138.5h208q0 -138 -29.5 -252.5t-92.5 -203.5l194 -255 h-322l-64 84q-75 -53 -152.5 -79t-166.5 -26q-193 0 -307.5 113t-114.5 296zM498 206q44 0 88 12t85 37l-259 344l-7 -6q-35 -48 -47.5 -93.5t-12.5 -93.5q0 -87 43.5 -143.5t109.5 -56.5zM423 1100q0 -41 17.5 -84t52.5 -94l59 44q50 36 67 73.5t17 82.5q0 50 -29.5 88.5 t-76.5 38.5q-52 0 -79.5 -42.5t-27.5 -106.5z" />
<glyph unicode="'" horiz-adv-x="302" d="M242 1288l-66 -281h-123l-1 268v285h190v-272z" />
<glyph unicode="(" horiz-adv-x="633" d="M109 591q0 384 131 658.5t297 356.5h6l50 -143q-105 -98 -177.5 -317.5t-72.5 -552.5v-28q0 -333 72 -552t178 -319l-50 -141h-6q-166 82 -297 355t-131 659v24z" />
<glyph unicode=")" horiz-adv-x="632" d="M539 567q0 -375 -137 -654.5t-306 -359.5h-6l-52 141q104 98 177 318t73 553v28q0 332 -73.5 553t-176.5 319l52 141h6q169 -80 306 -361t137 -654v-24z" />
<glyph unicode="*" horiz-adv-x="825" d="M295 966l-264 92l53 173l260 -127l-19 352h178l-19 -358l253 125l53 -175l-268 -93l176 -269l-144 -107l-149 294l-150 -285l-143 103z" />
<glyph unicode="+" d="M630 810h306v-254h-306v-410h-269v410h-307v254h307v396h269v-396z" />
<glyph unicode="," horiz-adv-x="459" d="M358 2l-145 -311h-166l59 319v231h252v-239z" />
<glyph unicode="-" horiz-adv-x="748" d="M617 511h-497v228h497v-228z" />
<glyph unicode="." horiz-adv-x="543" d="M405 0h-281v258h281v-258z" />
<glyph unicode="/" horiz-adv-x="646" d="M192 -125h-204l432 1581h206z" />
<glyph unicode="0" horiz-adv-x="1014" d="M933 571q0 -291 -115.5 -441.5t-309.5 -150.5q-196 0 -312 150.5t-116 441.5v313q0 290 115.5 441.5t310.5 151.5t311 -151.5t116 -441.5v-313zM649 909q0 176 -37 257t-103 76h-6q-67 5 -103 -76t-36 -257v-361q0 -178 37 -259.5t104 -75.5h6q66 -6 102 75t36 260v361z " />
<glyph unicode="1" horiz-adv-x="1019" d="M682 0h-284v1159l-270 -6v205l554 99v-1457z" />
<glyph unicode="2" horiz-adv-x="1019" d="M943 0h-860v193l397 503q79 112 113.5 195t34.5 151q0 93 -36 150t-104 57q-70 0 -107.5 -69t-37.5 -181h-277l-2 5q-4 198 112 335.5t312 137.5q200 0 312 -116t112 -316q0 -134 -62.5 -248t-208.5 -298l-190 -272h492v-227z" />
<glyph unicode="3" horiz-adv-x="1019" d="M340 853h142q76 0 113 54t37 151q0 85 -37 138t-106 53q-56 0 -96.5 -47t-40.5 -123h-275l-2 6q-5 173 113.5 282.5t292.5 109.5q198 0 316 -108.5t118 -306.5q0 -99 -51 -183.5t-140 -131.5q102 -42 156 -130.5t54 -210.5q0 -199 -127.5 -313t-326.5 -114 q-175 0 -301 107.5t-121 307.5l2 6h276q0 -84 44 -139t109 -55q74 0 117.5 55.5t43.5 148.5q0 116 -42.5 169.5t-125.5 53.5h-142v220z" />
<glyph unicode="4" horiz-adv-x="1019" d="M834 546h126v-228h-126v-318h-283v318h-483l-15 178l497 960h284v-910zM311 546h240v503l-6 1l-15 -27z" />
<glyph unicode="5" horiz-adv-x="1019" d="M110 644l72 812h712v-233h-480l-31 -343q31 31 77.5 51.5t97.5 22.5q182 3 279.5 -125.5t97.5 -361.5q0 -208 -110.5 -348t-315.5 -140q-174 0 -300.5 111.5t-122.5 302.5l2 5l276 15q0 -98 40 -152.5t105 -54.5q75 0 109 71.5t34 187.5q0 129 -38 204t-116 75 q-59 0 -91 -32t-44 -85z" />
<glyph unicode="6" horiz-adv-x="1019" d="M594 1477q71 0 129.5 -15.5t119.5 -46.5l-48 -215q-53 23 -97.5 34.5t-102.5 11.5q-104 0 -166.5 -94.5t-59.5 -267.5l4 -4q39 45 100 71t136 26q165 0 257.5 -139t92.5 -356q0 -218 -119 -360.5t-307 -142.5q-202 0 -327.5 156t-125.5 428v300q0 283 144.5 448.5 t369.5 165.5zM532 753q-59 0 -101 -20.5t-67 -57.5v-115q0 -171 45.5 -263t123.5 -92q64 0 103 81.5t39 195.5q0 121 -40 196t-103 75z" />
<glyph unicode="7" horiz-adv-x="1019" d="M941 1228q-197 -253 -261.5 -486.5t-93.5 -601.5l-13 -140h-285l14 140q27 327 116.5 598t250.5 490h-614v228h886v-228z" />
<glyph unicode="8" horiz-adv-x="1019" d="M910 1070q0 -110 -49.5 -194t-135.5 -131q98 -50 154 -140t56 -207q0 -203 -117 -311t-308 -108t-309 108.5t-118 310.5q0 117 56 207.5t155 139.5q-87 47 -136 131t-49 194q0 193 110 300t290 107t290.5 -107t110.5 -300zM651 419q0 98 -39 155.5t-103 57.5 q-65 0 -103 -57.5t-38 -155.5q0 -100 38 -156.5t104 -56.5q64 0 102.5 56.5t38.5 156.5zM624 1056q0 89 -29.5 141t-85.5 52t-85 -51t-29 -142q0 -92 29.5 -144.5t85.5 -52.5t85 52t29 145z" />
<glyph unicode="9" horiz-adv-x="1019" d="M449 206q86 0 142.5 82t56.5 230v56q-40 -58 -93.5 -88t-113.5 -30q-171 0 -268.5 134.5t-97.5 366.5q0 219 120.5 369.5t304.5 150.5q191 0 311 -154.5t120 -430.5v-356q0 -256 -136.5 -406.5t-345.5 -150.5q-62 0 -131 16t-128 46l32 212q55 -24 108.5 -35.5 t118.5 -11.5zM495 670q50 0 88.5 24.5t64.5 66.5v166q0 158 -40 239t-105 77h-6q-61 4 -100 -82.5t-39 -203.5q0 -131 35 -209t102 -78z" />
<glyph unicode=":" horiz-adv-x="540" d="M408 0h-281v258h281v-258zM408 823h-281v258h281v-258z" />
<glyph unicode=";" horiz-adv-x="516" d="M399 823h-281v258h281v-258zM400 2l-145 -311h-166l59 319v231h252v-239z" />
<glyph unicode="&#x3c;" horiz-adv-x="898" d="M305 545v-6l482 -203v-271l-739 365v230l739 364v-270z" />
<glyph unicode="=" horiz-adv-x="1023" d="M892 756h-772v228h772v-228zM892 323h-772v229h772v-229z" />
<glyph unicode="&#x3e;" horiz-adv-x="909" d="M593 543v6l-487 206v269l745 -364v-230l-745 -365v269z" />
<glyph unicode="?" horiz-adv-x="898" d="M270 413q1 136 39.5 202t147.5 159q56 55 89 121.5t33 152.5q0 92 -37.5 146t-106.5 54q-53 0 -92 -46.5t-40 -132.5h-276l-2 6q-3 197 111 299.5t299 102.5q200 0 314.5 -115.5t114.5 -312.5q0 -125 -64 -231.5t-160 -178.5q-51 -46 -68.5 -94.5t-17.5 -131.5h-284z M552 0h-281v247h281v-247z" />
<glyph unicode="@" horiz-adv-x="1615" d="M1536 516q-8 -219 -115.5 -378t-321.5 -159q-72 0 -123.5 44.5t-72.5 126.5q-38 -85 -93.5 -126.5t-129.5 -41.5q-128 0 -196.5 119t-50.5 315q22 252 127.5 404t255.5 152q106 0 171 -26t142 -80l-3 -4h5l-46 -569q-5 -97 10 -132t41 -28l6 -1q96 -5 154.5 105t66.5 279 q13 350 -119 546.5t-408 196.5q-266 0 -422 -210.5t-168 -570.5q-16 -352 126 -557.5t407 -205.5q75 0 155 19.5t138 49.5l35 -148q-60 -42 -151.5 -65.5t-179.5 -23.5q-353 0 -544.5 249t-175.5 682q15 428 226 682t558 254q342 0 526 -241t170 -657zM649 416 q-8 -127 15.5 -194t75.5 -67q46 0 83.5 28.5t66.5 103.5v6l39 496q-19 5 -37.5 8.5t-37.5 3.5q-95 0 -142.5 -95t-62.5 -290z" />
<glyph unicode="A" horiz-adv-x="1134" d="M765 309h-384l-78 -309h-287l410 1456h296l409 -1456h-287zM439 538h268l-131 515h-6z" />
<glyph unicode="B" horiz-adv-x="1136" d="M110 0v1456h429q225 0 351.5 -100t126.5 -298q0 -104 -46 -184.5t-138 -120.5q115 -27 170 -117t55 -211q0 -209 -119.5 -317t-342.5 -108h-486zM395 642v-415h201q90 0 134.5 50t44.5 149q0 104 -38 160t-122 56h-220zM395 841h157q87 2 133.5 50.5t46.5 139.5 q0 102 -48 149.5t-145 47.5h-144v-387z" />
<glyph unicode="C" horiz-adv-x="1088" d="M1023 469l3 -6q2 -240 -114 -362t-342 -122t-361 138.5t-135 392.5v435q0 253 130.5 392.5t349.5 139.5q232 0 350.5 -124t122.5 -367l-3 -6h-274q6 143 -39 206t-157 63q-96 0 -147 -75t-51 -227v-437q0 -154 54.5 -229t159.5 -75q103 0 143.5 59.5t35.5 203.5h274z" />
<glyph unicode="D" horiz-adv-x="1151" d="M110 0v1456h440q224 0 370 -169.5t146 -436.5v-245q0 -267 -146 -436t-370 -169h-440zM395 1228v-1001h139q119 0 183.5 103.5t64.5 274.5v247q0 170 -64.5 273t-183.5 103h-139z" />
<glyph unicode="E" horiz-adv-x="1008" d="M884 639h-489v-412h575v-227h-860v1456h858v-228h-573v-362h489v-227z" />
<glyph unicode="F" horiz-adv-x="1016" d="M889 605h-494v-605h-285v1456h866v-228h-581v-396h494v-227z" />
<glyph unicode="G" horiz-adv-x="1179" d="M1074 216q-59 -94 -177 -165.5t-299 -71.5q-234 0 -375.5 137t-141.5 390v444q0 251 136.5 389t361.5 138q242 0 363 -118.5t126 -339.5l-2 -6h-267q-3 123 -54.5 179.5t-157.5 56.5q-104 0 -163 -73.5t-59 -223.5v-446q0 -153 59.5 -226.5t173.5 -73.5q85 0 125.5 23 t66.5 68v261h-192v200h476v-542z" />
<glyph unicode="H" horiz-adv-x="1241" d="M1131 0h-284v603h-452v-603h-285v1456h285v-626h452v626h284v-1456z" />
<glyph unicode="I" horiz-adv-x="534" d="M408 0h-283v1456h283v-1456z" />
<glyph unicode="J" horiz-adv-x="1015" d="M623 1456h283v-1012q0 -214 -120.5 -339.5t-303.5 -125.5q-198 0 -313.5 112t-111.5 330l3 6h277q0 -115 40.5 -168t104.5 -53q58 0 99.5 63t41.5 175v1012z" />
<glyph unicode="K" horiz-adv-x="1137" d="M519 605h-124v-605h-285v1456h285v-592h92l284 592h349l-397 -665l430 -791h-346z" />
<glyph unicode="L" horiz-adv-x="959" d="M395 227h532v-227h-817v1456h285v-1229z" />
<glyph unicode="M" horiz-adv-x="1481" d="M474 1456l261 -1069h6l264 1069h371v-1456h-283v423l24 566l-6 1l-278 -990h-189l-275 982l-6 -1l25 -558v-423h-283v1456h369z" />
<glyph unicode="N" horiz-adv-x="1241" d="M1129 0h-283l-445 931l-6 -2v-929h-285v1456h285l445 -930l6 2v928h283v-1456z" />
<glyph unicode="O" horiz-adv-x="1166" d="M1091 523q0 -256 -139 -400t-370 -144t-369 144t-138 400v408q0 255 138 400.5t368 145.5t370 -145.5t140 -400.5v-408zM808 933q0 156 -58 235.5t-169 79.5q-112 0 -168 -79t-56 -236v-410q0 -158 57 -237t168 -79q110 0 168 79t58 237v410z" />
<glyph unicode="P" horiz-adv-x="1158" d="M395 522v-522h-285v1456h506q218 0 344 -129t126 -338q0 -210 -126.5 -338.5t-343.5 -128.5h-221zM395 750h221q91 0 139 67t48 170q0 104 -47.5 172.5t-139.5 68.5h-221v-478z" />
<glyph unicode="Q" horiz-adv-x="1241" d="M1097 523q0 -113 -29 -206t-82 -161l216 -237l-176 -150l-224 249q-49 -19 -102.5 -29t-111.5 -10q-231 0 -369 144t-138 400v408q0 255 138 400.5t368 145.5t370 -145.5t140 -400.5v-408zM814 933q0 156 -58 235.5t-169 79.5q-112 0 -168 -79t-56 -236v-410 q0 -158 57 -237t168 -79q110 0 168 79t58 237v410z" />
<glyph unicode="R" horiz-adv-x="1162" d="M395 579v-579h-284v1455h475q215 0 337.5 -113.5t122.5 -315.5q0 -114 -51 -196.5t-149 -131.5q112 -38 161.5 -126t49.5 -220v-103q0 -60 14 -128.5t49 -99.5v-21h-294q-35 32 -44 104t-9 147v99q0 109 -44.5 169t-127.5 60h-206zM395 806h190q87 0 132 53t45 151 q0 100 -45 159t-131 59h-191v-422z" />
<glyph unicode="S" horiz-adv-x="1109" d="M757 380q0 85 -44 134.5t-155 97.5q-227 79 -340.5 179.5t-113.5 281.5q0 179 132 291.5t337 112.5q208 0 338 -125.5t126 -316.5l-2 -6h-276q0 100 -50 162t-141 62q-85 0 -132.5 -51.5t-47.5 -129.5q0 -72 53 -118.5t184 -103.5q207 -70 311.5 -177.5t104.5 -290.5 q0 -189 -126 -296t-335 -107q-208 0 -360.5 121.5t-147.5 348.5l2 6h277q0 -135 57 -194t172 -59q90 0 133.5 48t43.5 130z" />
<glyph unicode="T" horiz-adv-x="994" d="M967 1228h-328v-1228h-284v1228h-326v228h938v-228z" />
<glyph unicode="U" horiz-adv-x="1176" d="M1082 1456v-991q0 -233 -136.5 -359.5t-357.5 -126.5t-357.5 127t-136.5 359v991h284v-991q0 -133 55 -196t155 -63q103 0 157 60t54 199v991h283z" />
<glyph unicode="V" horiz-adv-x="1129" d="M549 372l11 -56h6l11 53l243 1087h299l-407 -1456h-296l-407 1456h299z" />
<glyph unicode="W" horiz-adv-x="1548" d="M1087 527h6l157 929h276l-281 -1456h-265l-205 892h-6l-203 -892h-264l-281 1456h276l157 -929h6l210 929h204z" />
<glyph unicode="X" horiz-adv-x="1127" d="M558 947h6l198 509h329l-353 -722l377 -734h-343l-204 520h-6l-204 -520h-331l362 734l-353 722h327z" />
<glyph unicode="Y" horiz-adv-x="1124" d="M558 832h6l243 624h309l-416 -938v-518h-284v536l-409 920h311z" />
<glyph unicode="Z" horiz-adv-x="998" d="M386 227h559v-227h-879v143l546 1086h-552v227h876v-138z" />
<glyph unicode="[" horiz-adv-x="530" d="M505 1478h-112v-1601h112v-216h-399v2034h399v-217z" />
<glyph unicode="\" horiz-adv-x="758" d="M0 1456h280l515 -1581h-282z" />
<glyph unicode="]" horiz-adv-x="530" d="M21 1695h399v-2034h-399v216h114v1601h-114v217z" />
<glyph unicode="^" horiz-adv-x="785" d="M257 729h-219l253 727h206l253 -727h-219l-134 422l-2 8h-6l-1 -8z" />
<glyph unicode="_" horiz-adv-x="793" d="M783 -220h-775v220h775v-220z" />
<glyph unicode="`" horiz-adv-x="629" d="M549 1211h-230l-246 260l3 6h298z" />
<glyph unicode="a" horiz-adv-x="944" d="M619 0q-12 27 -21.5 59t-14.5 65q-40 -66 -97.5 -105.5t-133.5 -39.5q-134 0 -214.5 88t-80.5 235q0 159 102.5 247t304.5 88h107v88q0 79 -28.5 121.5t-85.5 42.5q-48 0 -72 -34t-24 -99l-275 1l-3 6q-5 141 104.5 240t288.5 99q169 0 274.5 -98.5t105.5 -280.5v-438 q0 -80 11 -149t34 -136h-282zM434 193q43 0 79.5 23t57.5 59v199h-107q-65 0 -94 -45t-29 -114q0 -54 25 -88t68 -34z" />
<glyph unicode="b" d="M940 458q0 -219 -90.5 -349t-265.5 -130q-76 0 -132.5 35t-96.5 102l-17 -116h-246v1560h284v-570q38 54 89.5 83t116.5 29q176 0 267 -135.5t91 -361.5v-147zM657 605q0 127 -31.5 198t-116.5 71q-46 0 -79 -23t-54 -65v-505q20 -37 53.5 -55.5t80.5 -18.5 q86 0 116.5 63.5t30.5 187.5v147z" />
<glyph unicode="c" horiz-adv-x="910" d="M487 206q58 0 87.5 43t29.5 124h258l3 -6q3 -170 -104.5 -279t-273.5 -109q-210 0 -322.5 137t-112.5 354v139q0 216 112 354.5t321 138.5q176 0 279.5 -113t100.5 -305l-2 -5h-259q0 88 -29.5 141.5t-89.5 53.5q-85 0 -117 -72t-32 -193v-139q0 -124 32 -194t119 -70z " />
<glyph unicode="d" d="M54 535q0 255 94 411t265 156q63 0 114 -30t91 -86v574h284v-1560h-247l-19 118q-42 -68 -97.5 -103.5t-126.5 -35.5q-171 0 -264.5 146.5t-93.5 388.5v21zM338 514q0 -145 33.5 -226t113.5 -81q44 0 77 20.5t56 59.5v492q-23 45 -56 70t-75 25q-79 0 -114 -93t-35 -246 v-21z" />
<glyph unicode="e" horiz-adv-x="938" d="M513 -21q-204 0 -324 134t-120 338v152q0 219 111.5 359t308.5 140q190 0 294 -127t104 -346v-174h-535v-4q0 -107 48.5 -176t146.5 -69q80 0 130 18t119 60l72 -181q-56 -54 -149.5 -89t-205.5 -35zM489 874q-68 0 -100 -62t-36 -167h255v40q0 90 -28 139.5t-91 49.5z " />
<glyph unicode="f" horiz-adv-x="647" d="M156 0v876h-133v206h133v120q0 182 94 280.5t264 98.5q33 0 66 -5.5t76 -15.5l-24 -218q-20 4 -38.5 7t-43.5 3q-54 0 -82 -39t-28 -111v-120h174v-206h-174v-876h-284z" />
<glyph unicode="g" horiz-adv-x="994" d="M54 591q0 229 94.5 370t266.5 141q72 0 127 -36.5t96 -104.5l18 121h247v-1061q0 -213 -123.5 -335.5t-338.5 -122.5q-70 0 -149 22.5t-147 60.5l50 219q57 -32 116 -48t128 -16q90 0 135 56.5t45 164.5v62q-40 -52 -91 -78.5t-115 -26.5q-171 0 -265 131.5t-94 347.5 v133zM338 458q0 -118 34 -184.5t114 -66.5q44 0 77.5 18t55.5 53v512q-22 40 -54.5 62t-76.5 22q-80 0 -115 -77.5t-35 -205.5v-133z" />
<glyph unicode="h" d="M368 953q42 71 101 110t130 39q144 0 226 -114.5t82 -353.5v-634h-285v636q0 134 -31.5 186t-98.5 52q-40 0 -71 -17.5t-53 -48.5v-808h-284v1560h284v-607z" />
<glyph unicode="i" horiz-adv-x="495" d="M389 0h-284v1082h284v-1082zM389 1343h-284v217h284v-217z" />
<glyph unicode="j" horiz-adv-x="487" d="M395 1082v-1115q0 -194 -90 -299t-250 -105q-35 0 -64 4.5t-64 13.5l12 223q22 -6 40 -9t40 -3q44 0 67.5 44t23.5 131v1115h285zM389 1343h-284v217h284v-217z" />
<glyph unicode="k" horiz-adv-x="963" d="M428 450h-52v-450h-284v1560h284v-886h47l183 408h327l-282 -487l329 -595h-325z" />
<glyph unicode="l" horiz-adv-x="495" d="M389 0h-284v1560h284v-1560z" />
<glyph unicode="m" horiz-adv-x="1507" d="M358 1082l11 -138q43 76 108 117t149 41q82 0 143 -43.5t93 -132.5q42 84 108 130t154 46q134 0 211.5 -110.5t77.5 -337.5v-654h-285v654q0 125 -27 172.5t-84 47.5q-41 0 -73 -24t-53 -66q1 -19 2 -37.5t1 -38.5v-708h-283v654q0 124 -27.5 172t-85.5 48 q-39 0 -69.5 -19.5t-52.5 -54.5v-800h-283v1082h265z" />
<glyph unicode="n" d="M352 1082l12 -149q45 80 110.5 124.5t144.5 44.5q135 0 212.5 -104t77.5 -327v-671h-285v671q0 112 -31.5 157.5t-97.5 45.5q-38 0 -70 -20t-54 -55v-799h-284v1082h265z" />
<glyph unicode="o" d="M58 607q0 218 115.5 356.5t323.5 138.5t324 -138.5t116 -356.5v-134q0 -220 -116 -357t-323 -137q-209 0 -324.5 137t-115.5 357v134zM341 473q0 -125 35 -196t122 -71q84 0 119.5 71.5t35.5 195.5v134q0 122 -35.5 194.5t-120.5 72.5t-120.5 -73t-35.5 -194v-134z" />
<glyph unicode="p" d="M940 458q0 -216 -94 -347.5t-263 -131.5q-66 0 -117.5 26.5t-89.5 78.5v-500h-284v1498h263l10 -107q39 61 92.5 94t123.5 33q171 0 265 -140.5t94 -370.5v-133zM656 591q0 128 -36 205.5t-113 77.5q-45 0 -78 -22.5t-53 -63.5v-510q20 -36 52.5 -54t79.5 -18 q79 0 113.5 67t34.5 185v133z" />
<glyph unicode="q" d="M54 591q0 229 94 370t265 141q71 0 125.5 -35.5t95.5 -101.5l20 117h247v-1498h-285v499q-39 -51 -89.5 -77.5t-114.5 -26.5q-170 0 -264 131.5t-94 347.5v133zM338 458q0 -119 33.5 -185.5t113.5 -66.5q44 0 77 18t54 53v515q-21 39 -53 60.5t-76 21.5q-79 0 -114 -77.5 t-35 -205.5v-133z" />
<glyph unicode="r" horiz-adv-x="655" d="M603 823l-107 3q-45 0 -74.5 -22t-45.5 -62v-742h-284v1082h265l11 -145l5 -2q26 78 72.5 122.5t108.5 44.5q19 0 40.5 -3.5t37.5 -8.5z" />
<glyph unicode="s" horiz-adv-x="888" d="M563 283q0 46 -36 79.5t-138 82.5q-163 61 -244.5 138t-81.5 200q0 132 104.5 225.5t276.5 93.5q180 0 287 -96t103 -245l-3 -6h-274q0 68 -28 108t-86 40q-46 0 -78 -31t-32 -75q0 -48 32 -77.5t139 -80.5q170 -58 252 -137.5t82 -208.5q0 -138 -110 -226t-289 -88 q-187 0 -296 109t-104 246l2 6h260q2 -86 40 -124t105 -38q57 0 87 28t30 77z" />
<glyph unicode="t" horiz-adv-x="648" d="M430 1351v-269h150v-206h-150v-543q0 -66 19 -94.5t52 -28.5q26 0 44 2.5t40 8.5l22 -216q-45 -14 -86 -20t-93 -6q-137 0 -209.5 84.5t-72.5 268.5v544h-128v206h128v269h284z" />
<glyph unicode="u" d="M641 125q-44 -71 -106.5 -108.5t-141.5 -37.5q-145 0 -226.5 109.5t-81.5 339.5v654h284v-656q0 -115 28 -167t83 -52q47 0 82.5 17.5t60.5 51.5v806h285v-1082h-250z" />
<glyph unicode="v" horiz-adv-x="909" d="M439 408l13 -82h6l14 82l125 674h297l-300 -1082h-278l-301 1082h297z" />
<glyph unicode="w" horiz-adv-x="1280" d="M882 468l6 1l101 613h263l-222 -1082h-237l-151 583h-6l-151 -583h-237l-224 1082h265l101 -616h6l151 616h184z" />
<glyph unicode="x" horiz-adv-x="909" d="M451 741h6l114 341h320l-268 -535l276 -547h-319l-119 351h-6l-119 -351h-320l275 547l-268 535h319z" />
<glyph unicode="y" horiz-adv-x="909" d="M440 444l2 -11l158 649h304l-365 -1245q-41 -117 -109.5 -195.5t-209.5 -78.5q-35 0 -62 6t-72 18l33 212q17 -3 24.5 -4.5t16.5 -1.5q62 0 93.5 32.5t45.5 85.5l25 80l-319 1091h305z" />
<glyph unicode="z" horiz-adv-x="883" d="M391 227h423v-227h-749v169l412 685h-400v228h730v-165z" />
<glyph unicode="{" horiz-adv-x="586" d="M490 -366q-167 55 -238 175t-71 290v206q0 98 -34 153.5t-103 55.5v202q69 0 103 55t34 154v207q0 171 71 290.5t238 174.5l53 -157q-62 -31 -86 -109.5t-24 -198.5v-207q0 -104 -41 -184.5t-124 -125.5q82 -46 123.5 -126.5t41.5 -183.5v-206q0 -120 23.5 -198 t86.5 -109z" />
<glyph unicode="|" horiz-adv-x="467" d="M316 -270h-163v1726h163v-1726z" />
<glyph unicode="}" horiz-adv-x="586" d="M42 -208q62 31 87 109t25 198v206q0 104 41 184.5t126 125.5q-85 44 -126 124.5t-41 185.5v207q0 120 -25 198.5t-87 109.5l53 157q166 -55 237.5 -174.5t71.5 -290.5v-207q0 -100 33.5 -154.5t105.5 -54.5v-202q-72 0 -105.5 -55t-33.5 -154v-206q0 -170 -71.5 -290 t-237.5 -175z" />
<glyph unicode="~" horiz-adv-x="1121" d="M1030 761q0 -164 -76.5 -273.5t-193.5 -109.5q-71 0 -131.5 32t-124.5 102q-40 45 -68 64.5t-63 19.5q-38 0 -64.5 -51.5t-26.5 -126.5l-193 26q0 165 74.5 273t193.5 108q69 0 132.5 -33.5t125.5 -98.5q37 -46 66 -65.5t63 -19.5q37 0 64.5 52.5t27.5 128.5z" />
<glyph unicode="&#xa1;" horiz-adv-x="534" d="M410 -374h-285v949h285v-949zM408 821h-280v261h280v-261z" />
<glyph unicode="&#xa2;" horiz-adv-x="1031" d="M524 206q58 0 87.5 43t29.5 124h266q0 -149 -81 -252.5t-213 -131.5v-234h-184v233q-166 30 -253 161t-87 321v139q0 189 87.5 321t252.5 163v225h184v-225q136 -29 215 -137.5t79 -276.5h-266q0 88 -29.5 141.5t-89.5 53.5q-85 0 -117 -72t-32 -193v-139q0 -124 32 -194 t119 -70z" />
<glyph unicode="&#xa3;" horiz-adv-x="1055" d="M510 591l3 -82q0 -78 -29.5 -151t-83.5 -131h600v-227h-855v227h8q36 12 54 94.5t18 171.5l-3 98h-130v225h122l-7 209q0 211 105 331.5t282 120.5q188 0 293 -113t102 -297l-3 -6h-276q0 96 -34 142t-83 46q-48 0 -74.5 -58.5t-26.5 -165.5l8 -209h280v-225h-270z" />
<glyph unicode="&#xa4;" horiz-adv-x="1257" d="M947 104q-67 -60 -147.5 -92t-168.5 -32t-168 31.5t-147 90.5l-112 -128l-130 136l122 140q-45 76 -68.5 167t-23.5 191q0 103 25.5 196.5t73.5 172.5l-129 150l130 137l123 -142q65 54 142.5 83t161.5 29t161.5 -30t143.5 -84l125 145l132 -138l-133 -153 q46 -78 71.5 -171.5t25.5 -194.5q0 -99 -23.5 -189t-66.5 -166l126 -143l-132 -137zM276 608q0 -189 103 -318.5t252 -129.5q147 0 250 129.5t103 318.5q0 187 -103 316.5t-250 129.5q-149 0 -252 -129.5t-103 -316.5z" />
<glyph unicode="&#xa5;" horiz-adv-x="1082" d="M539 895h6l206 561h310l-318 -719h189v-200h-253v-111h253v-198h-253v-228h-283v228h-271v198h271v111h-271v200h215l-318 719h310z" />
<glyph unicode="&#xa6;" horiz-adv-x="467" d="M108 -270v791h251v-791h-251zM359 698h-251v758h251v-758z" />
<glyph unicode="&#xa7;" horiz-adv-x="1115" d="M1019 482q0 -90 -37 -157.5t-105 -110.5q62 -51 93.5 -122t31.5 -171q0 -177 -121.5 -277t-326.5 -100q-201 0 -335 99t-129 317l2 6h276q0 -105 52.5 -149.5t133.5 -44.5q78 0 121 40.5t43 107.5q0 66 -47.5 106t-180.5 89q-208 64 -307 156.5t-99 261.5 q0 88 36.5 156.5t106.5 113.5q-63 51 -94.5 122t-31.5 171q0 172 123 276.5t329 104.5q210 0 329 -111.5t115 -310.5l-2 -6h-276q0 87 -43.5 143.5t-122.5 56.5q-84 0 -125 -42.5t-41 -108.5q0 -74 43 -112.5t181 -85.5q210 -63 309 -155.5t99 -262.5zM515 666 q-25 7 -49.5 16t-49.5 19q-25 -23 -36.5 -58t-11.5 -79q0 -80 41.5 -121t177.5 -94q57 -19 67 -22.5l30 -10.5q27 23 41.5 58t14.5 79q0 71 -47.5 116t-177.5 97z" />
<glyph unicode="&#xa8;" horiz-adv-x="1000" d="M842 1258h-250v198h250v-198zM394 1258h-251v198h251v-198z" />
<glyph unicode="&#xa9;" horiz-adv-x="1433" d="M987 596l3 -6q3 -151 -75.5 -229.5t-218.5 -78.5q-143 0 -226.5 106t-83.5 281v119q0 173 83.5 280t226.5 107q140 0 219 -79.5t76 -228.5l-3 -6h-136q0 96 -39 140.5t-117 45.5q-81 -1 -124 -72t-43 -186v-120q0 -118 43 -188.5t124 -70.5q78 0 116.5 43.5t38.5 142.5 h136zM193 729q0 -266 150.5 -448.5t365.5 -181.5q214 -1 364.5 181.5t150.5 448.5q0 264 -150.5 445.5t-364.5 181.5q-215 0 -365.5 -181.5t-150.5 -445.5zM82 729q0 315 182.5 531t444.5 216q261 0 444.5 -216t183.5 -531q0 -316 -184 -533t-444 -217q-261 0 -444 217 t-183 533z" />
<glyph unicode="&#xaa;" horiz-adv-x="785" d="M510 706q-7 23 -11.5 47t-6.5 48q-27 -48 -73 -78.5t-110 -30.5q-100 0 -155.5 61.5t-55.5 166.5q0 109 72.5 169t212.5 60h106v53q0 65 -22.5 99.5t-66.5 34.5q-51 0 -79 -27.5t-28 -78.5l-150 13l-2 6q-5 98 67.5 163t191.5 65q114 0 182 -71.5t68 -204.5v-314 q0 -51 5 -95t17 -86h-162zM349 829q39 0 82 30t58 66v112h-105q-59 0 -92.5 -33.5t-33.5 -79.5t22.5 -70.5t68.5 -24.5z" />
<glyph unicode="&#xab;" horiz-adv-x="904" d="M269 516l195 -397h-176l-233 388v19l233 389h176zM621 516l195 -397h-176l-233 388v19l233 389h176z" />
<glyph unicode="&#xac;" horiz-adv-x="972" d="M825 375h-183v263h-527v163h710v-426z" />
<glyph unicode="&#xad;" horiz-adv-x="748" d="M617 511h-497v228h497v-228z" />
<glyph unicode="&#xae;" horiz-adv-x="1433" d="M82 729q0 315 183 531t445 216q260 0 443.5 -216t183.5 -531q0 -316 -183.5 -533t-443.5 -217q-262 0 -445 217t-183 533zM194 729q0 -266 150.5 -448.5t365.5 -181.5q214 -1 364 181.5t150 448.5q0 264 -150 445.5t-364 181.5q-215 0 -365.5 -181.5t-150.5 -445.5z M585 655v-339h-140v850h251q134 0 212 -68t78 -193q0 -58 -26 -101.5t-76 -74.5q53 -30 77 -84.5t24 -129.5v-56q0 -42 3 -74t11 -53v-16h-143q-8 21 -9.5 61.5t-1.5 82.5v54q0 73 -29.5 107t-94.5 34h-136zM585 783h112q64 0 107.5 31.5t43.5 89.5q0 74 -34 104t-118 30 h-111v-255z" />
<glyph unicode="&#xaf;" horiz-adv-x="949" d="M800 1297h-654v160h654v-160z" />
<glyph unicode="&#xb0;" horiz-adv-x="725" d="M117 1203q0 112 72.5 193t173.5 81q99 0 170.5 -81t71.5 -193q0 -113 -71 -192t-171 -79q-102 0 -174 79t-72 192zM255 1203q0 -55 31.5 -92t76.5 -37q43 0 73.5 36.5t30.5 92.5t-30.5 94t-73.5 38q-45 0 -76.5 -38.5t-31.5 -93.5z" />
<glyph unicode="&#xb1;" horiz-adv-x="992" d="M618 956h279v-235h-279v-382h-250v382h-281v235h281v361h250v-361zM803 7h-705v230h705v-230z" />
<glyph unicode="&#xb2;" horiz-adv-x="748" d="M645 667h-539v152l262 254q47 49 60 82.5t13 77.5q0 41 -16.5 67t-53.5 26q-40 0 -59.5 -30.5t-19.5 -80.5h-190l-2 6q-5 107 71.5 182.5t205.5 75.5q126 0 194.5 -64.5t68.5 -182.5q0 -83 -48.5 -149t-155.5 -163l-79 -96l2 -5h286v-152z" />
<glyph unicode="&#xb3;" horiz-adv-x="740" d="M354 1136q48 0 70.5 25t22.5 73q0 39 -20.5 65t-60.5 26q-39 0 -58.5 -22.5t-19.5 -55.5h-189l-2 6q-6 102 70.5 163.5t193.5 61.5q131 0 208 -59.5t77 -169.5q0 -55 -30.5 -100.5t-83.5 -71.5q60 -24 93 -71.5t33 -115.5q0 -112 -77 -173.5t-209 -61.5q-130 0 -211.5 63 t-75.5 177l2 6h191q0 -44 23 -69t69 -25q39 0 64.5 24.5t25.5 70.5q0 51 -27.5 79t-78.5 28h-91v127h91z" />
<glyph unicode="&#xb4;" horiz-adv-x="683" d="M276 1478h299l3 -6l-249 -260h-229z" />
<glyph unicode="&#xb5;" horiz-adv-x="1113" d="M405 1082v-637q1 -137 33.5 -186.5t100.5 -49.5q52 0 88.5 24t59.5 70v779h284v-1082h-267l-4 51q-35 -36 -78 -54t-93 -18q-36 0 -67 9t-57 26v-430h-285v1498h285z" />
<glyph unicode="&#xb6;" horiz-adv-x="951" d="M537 0v520h-65q-197 0 -306.5 129.5t-109.5 338.5q0 207 109.5 337.5t306.5 130.5h351v-1456h-286z" />
<glyph unicode="&#xb7;" horiz-adv-x="566" d="M418 560h-278v262h278v-262z" />
<glyph unicode="&#xb8;" horiz-adv-x="493" d="M323 7l-9 -59q51 -11 86.5 -52.5t35.5 -120.5q0 -108 -80.5 -172.5t-227.5 -64.5l-6 163q34 0 53.5 20.5t19.5 63.5q0 42 -25.5 59t-86.5 22l27 141h213z" />
<glyph unicode="&#xb9;" horiz-adv-x="513" d="M405 665h-200v634l-103 -1v156l303 23v-812z" />
<glyph unicode="&#xba;" horiz-adv-x="811" d="M104 1142q0 148 81 241.5t217 93.5t216.5 -93.5t80.5 -241.5v-115q0 -150 -80.5 -242.5t-215.5 -92.5q-137 0 -218 92.5t-81 242.5v115zM265 1027q0 -89 35 -142.5t103 -53.5q65 0 100 53.5t35 142.5v115q0 85 -35 139.5t-101 54.5q-67 0 -102 -54.5t-35 -139.5v-115z " />
<glyph unicode="&#xbb;" horiz-adv-x="905" d="M236 949l233 -389v-19l-233 -389h-176l195 398l-195 399h176zM598 949l233 -389v-19l-233 -389h-176l195 398l-195 399h176z" />
<glyph unicode="&#xbc;" horiz-adv-x="1260" d="M402 664h-200v634l-103 -1v156l303 23v-812zM333 118l-134 74l601 1138l134 -74zM1149 294h75v-154h-75v-140h-200v140h-343l-13 124l356 534v3h200v-507zM794 294h155v253l-6 2l-7 -12z" />
<glyph unicode="&#xbd;" horiz-adv-x="1317" d="M326 118l-134 74l601 1138l134 -74zM385 664h-200v634l-103 -1v156l303 23v-812zM1238 0h-539v152l262 254q47 49 60 82.5t13 77.5q0 41 -16.5 67t-53.5 26q-40 0 -59.5 -30.5t-19.5 -80.5h-190l-2 6q-5 107 71.5 182.5t205.5 75.5q126 0 194.5 -64.5t68.5 -182.5 q0 -83 -48.5 -149t-155.5 -163l-79 -96l2 -5h286v-152z" />
<glyph unicode="&#xbe;" horiz-adv-x="1452" d="M518 118l-134 74l601 1138l134 -74zM1303 294h75v-154h-75v-140h-200v140h-343l-13 124l356 534v3h200v-507zM948 294h155v253l-6 2l-7 -12zM340 1137q48 0 70.5 25t22.5 73q0 39 -20.5 65t-60.5 26q-39 0 -58.5 -22.5t-19.5 -55.5h-189l-2 6q-6 102 70.5 163.5 t193.5 61.5q131 0 208 -59.5t77 -169.5q0 -55 -30.5 -100.5t-83.5 -71.5q60 -24 93 -71.5t33 -115.5q0 -112 -77 -173.5t-209 -61.5q-130 0 -211.5 63t-75.5 177l2 6h191q0 -44 23 -69t69 -25q39 0 64.5 24.5t25.5 70.5q0 51 -27.5 79t-78.5 28h-91v127h91z" />
<glyph unicode="&#xbf;" horiz-adv-x="909" d="M656 668q-2 -137 -41 -203t-147 -158q-57 -57 -89.5 -123t-32.5 -151q0 -91 37 -144.5t107 -53.5q52 0 91.5 46t41.5 131h277l2 -6q1 -196 -113.5 -298t-298.5 -102q-200 0 -313.5 115t-113.5 311q0 125 62.5 231t159.5 179q51 44 69 92.5t18 133.5h284zM373 1082h283 v-248h-283v248z" />
<glyph unicode="&#xc0;" horiz-adv-x="1134" d="M765 309h-384l-78 -309h-287l410 1456h296l409 -1456h-287zM439 538h268l-131 515h-6zM719 1559h-230l-246 260l3 6h298z" />
<glyph unicode="&#xc1;" horiz-adv-x="1134" d="M765 309h-384l-78 -309h-287l410 1456h296l409 -1456h-287zM439 538h268l-131 515h-6zM605 1826h299l3 -6l-249 -260h-229z" />
<glyph unicode="&#xc2;" horiz-adv-x="1134" d="M765 309h-384l-78 -309h-287l410 1456h296l409 -1456h-287zM439 538h268l-131 515h-6zM909 1613v-22h-222l-114 134l-112 -134h-217v25l250 237h159z" />
<glyph unicode="&#xc3;" horiz-adv-x="1134" d="M765 309h-384l-78 -309h-287l410 1456h296l409 -1456h-287zM439 538h268l-131 515h-6zM901 1854q0 -95 -51 -161.5t-130 -66.5q-59 0 -136.5 44t-121.5 44q-27 0 -46 -33t-19 -79l-149 43q0 93 51.5 161t129.5 68q46 0 129.5 -44t128.5 -44q27 0 46.5 32.5t19.5 80.5z " />
<glyph unicode="&#xc4;" horiz-adv-x="1134" d="M765 309h-384l-78 -309h-287l410 1456h296l409 -1456h-287zM439 538h268l-131 515h-6zM923 1606h-250v198h250v-198zM475 1606h-251v198h251v-198z" />
<glyph unicode="&#xc5;" horiz-adv-x="1134" d="M765 309h-384l-78 -309h-287l410 1456h296l409 -1456h-287zM439 538h268l-131 515h-6zM381 1739q0 80 56 135t138 55q80 0 135 -55t55 -135q0 -82 -54.5 -134t-135.5 -52q-82 0 -138 52.5t-56 133.5zM489 1739q0 -42 24 -68.5t62 -26.5q37 0 60 26t23 69t-23 70t-60 27 q-38 0 -62 -27t-24 -70z" />
<glyph unicode="&#xc6;" horiz-adv-x="1656" d="M1591 0h-774l-12 339h-329l-136 -339h-331l639 1456h891v-231h-481l12 -363h400v-230h-392l15 -402h498v-230zM573 578h224l-17 497l-6 1z" />
<glyph unicode="&#xc7;" horiz-adv-x="1088" d="M1023 469l3 -6q2 -240 -114 -362t-342 -122t-361 138.5t-135 392.5v435q0 253 130.5 392.5t349.5 139.5q232 0 350.5 -124t122.5 -367l-3 -6h-274q6 143 -39 206t-157 63q-96 0 -147 -75t-51 -227v-437q0 -154 54.5 -229t159.5 -75q103 0 143.5 59.5t35.5 203.5h274z M654 7l-9 -59q51 -11 86.5 -52.5t35.5 -120.5q0 -108 -80.5 -172.5t-227.5 -64.5l-6 163q34 0 53.5 20.5t19.5 63.5q0 42 -25.5 59t-86.5 22l27 141h213z" />
<glyph unicode="&#xc8;" horiz-adv-x="1008" d="M884 639h-489v-412h575v-227h-860v1456h858v-228h-573v-362h489v-227zM659 1559h-230l-246 260l3 6h298z" />
<glyph unicode="&#xc9;" horiz-adv-x="1008" d="M884 639h-489v-412h575v-227h-860v1456h858v-228h-573v-362h489v-227zM545 1826h299l3 -6l-249 -260h-229z" />
<glyph unicode="&#xca;" horiz-adv-x="1008" d="M884 639h-489v-412h575v-227h-860v1456h858v-228h-573v-362h489v-227zM849 1613v-22h-222l-114 134l-112 -134h-217v25l250 237h159z" />
<glyph unicode="&#xcb;" horiz-adv-x="1008" d="M884 639h-489v-412h575v-227h-860v1456h858v-228h-573v-362h489v-227zM863 1606h-250v198h250v-198zM415 1606h-251v198h251v-198z" />
<glyph unicode="&#xcc;" horiz-adv-x="534" d="M408 0h-283v1456h283v-1456zM415 1559h-230l-246 260l3 6h298z" />
<glyph unicode="&#xcd;" horiz-adv-x="534" d="M408 0h-283v1456h283v-1456zM299 1826h299l3 -6l-249 -260h-229z" />
<glyph unicode="&#xce;" horiz-adv-x="534" d="M408 0h-283v1456h283v-1456zM605 1613v-22h-222l-114 134l-112 -134h-217v25l250 237h159z" />
<glyph unicode="&#xcf;" horiz-adv-x="534" d="M408 0h-283v1456h283v-1456zM619 1606h-250v198h250v-198zM171 1606h-251v198h251v-198z" />
<glyph unicode="&#xd0;" horiz-adv-x="1181" d="M140 0v655h-109v175h109v626h440q224 0 370 -169.5t146 -436.5v-245q0 -267 -146 -436t-370 -169h-440zM612 655h-187v-428h139q119 0 183.5 103.5t64.5 274.5v247q0 170 -64.5 273t-183.5 103h-139v-398h187v-175z" />
<glyph unicode="&#xd1;" horiz-adv-x="1241" d="M1129 0h-283l-445 931l-6 -2v-929h-285v1456h285l445 -930l6 2v928h283v-1456zM947 1854q0 -95 -51 -161.5t-130 -66.5q-59 0 -136.5 44t-121.5 44q-27 0 -46 -33t-19 -79l-149 43q0 93 51.5 161t129.5 68q46 0 129.5 -44t128.5 -44q27 0 46.5 32.5t19.5 80.5z" />
<glyph unicode="&#xd2;" horiz-adv-x="1166" d="M1091 523q0 -256 -139 -400t-370 -144t-369 144t-138 400v408q0 255 138 400.5t368 145.5t370 -145.5t140 -400.5v-408zM808 933q0 156 -58 235.5t-169 79.5q-112 0 -168 -79t-56 -236v-410q0 -158 57 -237t168 -79q110 0 168 79t58 237v410zM729 1580h-230l-246 260l3 6 h298z" />
<glyph unicode="&#xd3;" horiz-adv-x="1166" d="M1091 523q0 -256 -139 -400t-370 -144t-369 144t-138 400v408q0 255 138 400.5t368 145.5t370 -145.5t140 -400.5v-408zM808 933q0 156 -58 235.5t-169 79.5q-112 0 -168 -79t-56 -236v-410q0 -158 57 -237t168 -79q110 0 168 79t58 237v410zM615 1847h299l3 -6 l-249 -260h-229z" />
<glyph unicode="&#xd4;" horiz-adv-x="1166" d="M1091 523q0 -256 -139 -400t-370 -144t-369 144t-138 400v408q0 255 138 400.5t368 145.5t370 -145.5t140 -400.5v-408zM808 933q0 156 -58 235.5t-169 79.5q-112 0 -168 -79t-56 -236v-410q0 -158 57 -237t168 -79q110 0 168 79t58 237v410zM919 1634v-22h-222l-114 134 l-112 -134h-217v25l250 237h159z" />
<glyph unicode="&#xd5;" horiz-adv-x="1166" d="M1091 523q0 -256 -139 -400t-370 -144t-369 144t-138 400v408q0 255 138 400.5t368 145.5t370 -145.5t140 -400.5v-408zM808 933q0 156 -58 235.5t-169 79.5q-112 0 -168 -79t-56 -236v-410q0 -158 57 -237t168 -79q110 0 168 79t58 237v410zM911 1875q0 -95 -51 -161.5 t-130 -66.5q-59 0 -136.5 44t-121.5 44q-27 0 -46 -33t-19 -79l-149 43q0 93 51.5 161t129.5 68q46 0 129.5 -44t128.5 -44q27 0 46.5 32.5t19.5 80.5z" />
<glyph unicode="&#xd6;" horiz-adv-x="1166" d="M1091 523q0 -256 -139 -400t-370 -144t-369 144t-138 400v408q0 255 138 400.5t368 145.5t370 -145.5t140 -400.5v-408zM808 933q0 156 -58 235.5t-169 79.5q-112 0 -168 -79t-56 -236v-410q0 -158 57 -237t168 -79q110 0 168 79t58 237v410zM933 1627h-250v198h250v-198 zM485 1627h-251v198h251v-198z" />
<glyph unicode="&#xd7;" horiz-adv-x="978" d="M60 369l272 314l-275 317l167 163l262 -302l262 302l166 -163l-275 -316l274 -315l-167 -163l-261 300l-260 -300z" />
<glyph unicode="&#xd8;" horiz-adv-x="1215" d="M1097 523q0 -256 -139 -400t-370 -144q-63 0 -120.5 11t-107.5 34l-57 -117h-127l86 176q-87 70 -134 181.5t-47 258.5v408q0 255 138 400.5t368 145.5q90 0 168.5 -24t141.5 -69l65 132h129l-106 -216q54 -71 83 -164t29 -205v-408zM363 523q0 -54 6 -97.5t19 -70.5 l6 -1l382 781q-28 56 -75.5 84.5t-113.5 28.5q-112 0 -168 -79t-56 -236v-410zM814 933v4l-6 1l-342 -697q24 -18 54.5 -26t67.5 -8q110 0 168 79t58 237v410z" />
<glyph unicode="&#xd9;" horiz-adv-x="1176" d="M1082 1456v-991q0 -233 -136.5 -359.5t-357.5 -126.5t-357.5 127t-136.5 359v991h284v-991q0 -133 55 -196t155 -63q103 0 157 60t54 199v991h283zM732 1559h-230l-246 260l3 6h298z" />
<glyph unicode="&#xda;" horiz-adv-x="1176" d="M1082 1456v-991q0 -233 -136.5 -359.5t-357.5 -126.5t-357.5 127t-136.5 359v991h284v-991q0 -133 55 -196t155 -63q103 0 157 60t54 199v991h283zM618 1826h299l3 -6l-249 -260h-229z" />
<glyph unicode="&#xdb;" horiz-adv-x="1176" d="M1082 1456v-991q0 -233 -136.5 -359.5t-357.5 -126.5t-357.5 127t-136.5 359v991h284v-991q0 -133 55 -196t155 -63q103 0 157 60t54 199v991h283zM922 1613v-22h-222l-114 134l-112 -134h-217v25l250 237h159z" />
<glyph unicode="&#xdc;" horiz-adv-x="1176" d="M1082 1456v-991q0 -233 -136.5 -359.5t-357.5 -126.5t-357.5 127t-136.5 359v991h284v-991q0 -133 55 -196t155 -63q103 0 157 60t54 199v991h283zM936 1606h-250v198h250v-198zM488 1606h-251v198h251v-198z" />
<glyph unicode="&#xdd;" horiz-adv-x="1124" d="M558 832h6l243 624h309l-416 -938v-518h-284v536l-409 920h311zM601 1825h299l3 -6l-249 -260h-229z" />
<glyph unicode="&#xde;" horiz-adv-x="1079" d="M393 1456v-268h165q223 0 346.5 -124t123.5 -326q0 -203 -123.5 -326.5t-346.5 -123.5h-165v-288h-285v1456h285zM393 963v-448h165q94 0 139.5 63t45.5 158q0 96 -46 160.5t-139 64.5h-163z" />
<glyph unicode="&#xdf;" horiz-adv-x="1132" d="M402 0h-283v1104q0 223 114 344t315 121q161 0 268 -96t107 -269q0 -105 -42.5 -200.5t-42.5 -168.5q0 -53 118.5 -194t118.5 -282q0 -192 -98.5 -286t-296.5 -94q-66 0 -131 15t-98 40l50 224q32 -23 77 -38t100 -15q53 0 84 38t31 105q0 71 -120 203.5t-120 272.5 q0 94 44 192t44 174q0 63 -35.5 108t-80.5 45q-54 0 -88.5 -65.5t-34.5 -177.5v-1100z" />
<glyph unicode="&#xe0;" horiz-adv-x="944" d="M619 0q-12 27 -21.5 59t-14.5 65q-40 -66 -97.5 -105.5t-133.5 -39.5q-134 0 -214.5 88t-80.5 235q0 159 102.5 247t304.5 88h107v88q0 79 -28.5 121.5t-85.5 42.5q-48 0 -72 -34t-24 -99l-275 1l-3 6q-5 141 104.5 240t288.5 99q169 0 274.5 -98.5t105.5 -280.5v-438 q0 -80 11 -149t34 -136h-282zM434 193q43 0 79.5 23t57.5 59v199h-107q-65 0 -94 -45t-29 -114q0 -54 25 -88t68 -34zM612 1237h-230l-246 260l3 6h298z" />
<glyph unicode="&#xe1;" horiz-adv-x="944" d="M619 0q-12 27 -21.5 59t-14.5 65q-40 -66 -97.5 -105.5t-133.5 -39.5q-134 0 -214.5 88t-80.5 235q0 159 102.5 247t304.5 88h107v88q0 79 -28.5 121.5t-85.5 42.5q-48 0 -72 -34t-24 -99l-275 1l-3 6q-5 141 104.5 240t288.5 99q169 0 274.5 -98.5t105.5 -280.5v-438 q0 -80 11 -149t34 -136h-282zM434 193q43 0 79.5 23t57.5 59v199h-107q-65 0 -94 -45t-29 -114q0 -54 25 -88t68 -34zM498 1504h299l3 -6l-249 -260h-229z" />
<glyph unicode="&#xe2;" horiz-adv-x="944" d="M619 0q-12 27 -21.5 59t-14.5 65q-40 -66 -97.5 -105.5t-133.5 -39.5q-134 0 -214.5 88t-80.5 235q0 159 102.5 247t304.5 88h107v88q0 79 -28.5 121.5t-85.5 42.5q-48 0 -72 -34t-24 -99l-275 1l-3 6q-5 141 104.5 240t288.5 99q169 0 274.5 -98.5t105.5 -280.5v-438 q0 -80 11 -149t34 -136h-282zM434 193q43 0 79.5 23t57.5 59v199h-107q-65 0 -94 -45t-29 -114q0 -54 25 -88t68 -34zM802 1291v-22h-222l-114 134l-112 -134h-217v25l250 237h159z" />
<glyph unicode="&#xe3;" horiz-adv-x="944" d="M619 0q-12 27 -21.5 59t-14.5 65q-40 -66 -97.5 -105.5t-133.5 -39.5q-134 0 -214.5 88t-80.5 235q0 159 102.5 247t304.5 88h107v88q0 79 -28.5 121.5t-85.5 42.5q-48 0 -72 -34t-24 -99l-275 1l-3 6q-5 141 104.5 240t288.5 99q169 0 274.5 -98.5t105.5 -280.5v-438 q0 -80 11 -149t34 -136h-282zM434 193q43 0 79.5 23t57.5 59v199h-107q-65 0 -94 -45t-29 -114q0 -54 25 -88t68 -34zM794 1532q0 -95 -51 -161.5t-130 -66.5q-59 0 -136.5 44t-121.5 44q-27 0 -46 -33t-19 -79l-149 43q0 93 51.5 161t129.5 68q46 0 129.5 -44t128.5 -44 q27 0 46.5 32.5t19.5 80.5z" />
<glyph unicode="&#xe4;" horiz-adv-x="944" d="M619 0q-12 27 -21.5 59t-14.5 65q-40 -66 -97.5 -105.5t-133.5 -39.5q-134 0 -214.5 88t-80.5 235q0 159 102.5 247t304.5 88h107v88q0 79 -28.5 121.5t-85.5 42.5q-48 0 -72 -34t-24 -99l-275 1l-3 6q-5 141 104.5 240t288.5 99q169 0 274.5 -98.5t105.5 -280.5v-438 q0 -80 11 -149t34 -136h-282zM434 193q43 0 79.5 23t57.5 59v199h-107q-65 0 -94 -45t-29 -114q0 -54 25 -88t68 -34zM818 1284h-250v198h250v-198zM370 1284h-251v198h251v-198z" />
<glyph unicode="&#xe5;" horiz-adv-x="944" d="M619 0q-12 27 -21.5 59t-14.5 65q-40 -66 -97.5 -105.5t-133.5 -39.5q-134 0 -214.5 88t-80.5 235q0 159 102.5 247t304.5 88h107v88q0 79 -28.5 121.5t-85.5 42.5q-48 0 -72 -34t-24 -99l-275 1l-3 6q-5 141 104.5 240t288.5 99q169 0 274.5 -98.5t105.5 -280.5v-438 q0 -80 11 -149t34 -136h-282zM434 193q43 0 79.5 23t57.5 59v199h-107q-65 0 -94 -45t-29 -114q0 -54 25 -88t68 -34zM274 1417q0 80 56 135t138 55q80 0 135 -55t55 -135q0 -82 -54.5 -134t-135.5 -52q-82 0 -138 52.5t-56 133.5zM382 1417q0 -42 24 -68.5t62 -26.5 q37 0 60 26t23 69t-23 70t-60 27q-38 0 -62 -27t-24 -70z" />
<glyph unicode="&#xe6;" horiz-adv-x="1479" d="M1057 -21q-108 0 -192 38t-142 110q-52 -65 -135.5 -106.5t-196.5 -41.5q-168 0 -259 90.5t-91 247.5q0 159 110.5 245.5t322.5 86.5h136v56q0 79 -30 124t-83 45q-57 0 -89.5 -37t-32.5 -92l-275 17l-2 6q-5 145 106.5 239.5t295.5 94.5q83 0 153 -23.5t121 -68.5 q51 44 118 68t149 24q181 0 285 -131t104 -356v-160h-535q5 -117 51.5 -183t144.5 -66q77 0 127.5 18.5t115.5 59.5l71 -183q-53 -49 -147.5 -85.5t-200.5 -36.5zM446 184q41 0 88 27t76 65v190h-134q-71 0 -111.5 -44.5t-40.5 -108.5q0 -61 30 -95t92 -34zM1041 874 q-73 0 -106 -60t-39 -170h257v27q0 94 -28 148.5t-84 54.5z" />
<glyph unicode="&#xe7;" horiz-adv-x="910" d="M487 206q58 0 87.5 43t29.5 124h258l3 -6q3 -170 -104.5 -279t-273.5 -109q-210 0 -322.5 137t-112.5 354v139q0 216 112 354.5t321 138.5q176 0 279.5 -113t100.5 -305l-2 -5h-259q0 88 -29.5 141.5t-89.5 53.5q-85 0 -117 -72t-32 -193v-139q0 -124 32 -194t119 -70z M586 7l-9 -59q51 -11 86.5 -52.5t35.5 -120.5q0 -108 -80.5 -172.5t-227.5 -64.5l-6 163q34 0 53.5 20.5t19.5 63.5q0 42 -25.5 59t-86.5 22l27 141h213z" />
<glyph unicode="&#xe8;" horiz-adv-x="938" d="M513 -21q-204 0 -324 134t-120 338v152q0 219 111.5 359t308.5 140q190 0 294 -127t104 -346v-174h-535v-4q0 -107 48.5 -176t146.5 -69q80 0 130 18t119 60l72 -181q-56 -54 -149.5 -89t-205.5 -35zM489 874q-68 0 -100 -62t-36 -167h255v40q0 90 -28 139.5t-91 49.5z M611 1238h-230l-246 260l3 6h298z" />
<glyph unicode="&#xe9;" horiz-adv-x="938" d="M513 -21q-204 0 -324 134t-120 338v152q0 219 111.5 359t308.5 140q190 0 294 -127t104 -346v-174h-535v-4q0 -107 48.5 -176t146.5 -69q80 0 130 18t119 60l72 -181q-56 -54 -149.5 -89t-205.5 -35zM489 874q-68 0 -100 -62t-36 -167h255v40q0 90 -28 139.5t-91 49.5z M497 1505h299l3 -6l-249 -260h-229z" />
<glyph unicode="&#xea;" horiz-adv-x="938" d="M513 -21q-204 0 -324 134t-120 338v152q0 219 111.5 359t308.5 140q190 0 294 -127t104 -346v-174h-535v-4q0 -107 48.5 -176t146.5 -69q80 0 130 18t119 60l72 -181q-56 -54 -149.5 -89t-205.5 -35zM489 874q-68 0 -100 -62t-36 -167h255v40q0 90 -28 139.5t-91 49.5z M801 1292v-22h-222l-114 134l-112 -134h-217v25l250 237h159z" />
<glyph unicode="&#xeb;" horiz-adv-x="938" d="M513 -21q-204 0 -324 134t-120 338v152q0 219 111.5 359t308.5 140q190 0 294 -127t104 -346v-174h-535v-4q0 -107 48.5 -176t146.5 -69q80 0 130 18t119 60l72 -181q-56 -54 -149.5 -89t-205.5 -35zM489 874q-68 0 -100 -62t-36 -167h255v40q0 90 -28 139.5t-91 49.5z M817 1285h-250v198h250v-198zM369 1285h-251v198h251v-198z" />
<glyph unicode="&#xec;" horiz-adv-x="513" d="M398 0h-285v1082h285v-1082zM403 1216h-230l-246 260l3 6h298z" />
<glyph unicode="&#xed;" horiz-adv-x="513" d="M398 0h-285v1082h285v-1082zM287 1483h299l3 -6l-249 -260h-229z" />
<glyph unicode="&#xee;" horiz-adv-x="513" d="M398 0h-285v1082h285v-1082zM593 1272v-22h-222l-114 134l-112 -134h-217v25l250 237h159z" />
<glyph unicode="&#xef;" horiz-adv-x="513" d="M398 0h-285v1082h285v-1082zM607 1263h-250v198h250v-198zM159 1263h-251v198h251v-198z" />
<glyph unicode="&#xf0;" horiz-adv-x="1053" d="M781 1284q98 -117 152.5 -274.5t54.5 -345.5v-71q0 -270 -137.5 -442t-342.5 -172q-208 0 -339 139.5t-131 347.5q0 227 113.5 362t313.5 135q59 0 112.5 -19t93.5 -52l4 4q-17 69 -47 130.5t-71 111.5l-181 -119l-72 111l155 101q-30 21 -62 38t-65 31l89 217 q72 -21 138.5 -56t125.5 -83l173 112l70 -110zM511 206q90 0 141 108t51 279v70q-28 38 -76.5 62.5t-111.5 24.5q-93 0 -143 -77.5t-50 -206.5q0 -111 51.5 -185.5t137.5 -74.5z" />
<glyph unicode="&#xf1;" d="M352 1082l12 -149q45 80 110.5 124.5t144.5 44.5q135 0 212.5 -104t77.5 -327v-671h-285v671q0 112 -31.5 157.5t-97.5 45.5q-38 0 -70 -20t-54 -55v-799h-284v1082h265zM823 1532q0 -95 -51 -161.5t-130 -66.5q-59 0 -136.5 44t-121.5 44q-27 0 -46 -33t-19 -79l-149 43 q0 93 51.5 161t129.5 68q46 0 129.5 -44t128.5 -44q27 0 46.5 32.5t19.5 80.5z" />
<glyph unicode="&#xf2;" d="M58 607q0 218 115.5 356.5t323.5 138.5t324 -138.5t116 -356.5v-134q0 -220 -116 -357t-323 -137q-209 0 -324.5 137t-115.5 357v134zM341 473q0 -125 35 -196t122 -71q84 0 119.5 71.5t35.5 195.5v134q0 122 -35.5 194.5t-120.5 72.5t-120.5 -73t-35.5 -194v-134z M641 1237h-230l-246 260l3 6h298z" />
<glyph unicode="&#xf3;" d="M58 607q0 218 115.5 356.5t323.5 138.5t324 -138.5t116 -356.5v-134q0 -220 -116 -357t-323 -137q-209 0 -324.5 137t-115.5 357v134zM341 473q0 -125 35 -196t122 -71q84 0 119.5 71.5t35.5 195.5v134q0 122 -35.5 194.5t-120.5 72.5t-120.5 -73t-35.5 -194v-134z M527 1504h299l3 -6l-249 -260h-229z" />
<glyph unicode="&#xf4;" d="M58 607q0 218 115.5 356.5t323.5 138.5t324 -138.5t116 -356.5v-134q0 -220 -116 -357t-323 -137q-209 0 -324.5 137t-115.5 357v134zM341 473q0 -125 35 -196t122 -71q84 0 119.5 71.5t35.5 195.5v134q0 122 -35.5 194.5t-120.5 72.5t-120.5 -73t-35.5 -194v-134z M831 1291v-22h-222l-114 134l-112 -134h-217v25l250 237h159z" />
<glyph unicode="&#xf5;" d="M58 607q0 218 115.5 356.5t323.5 138.5t324 -138.5t116 -356.5v-134q0 -220 -116 -357t-323 -137q-209 0 -324.5 137t-115.5 357v134zM341 473q0 -125 35 -196t122 -71q84 0 119.5 71.5t35.5 195.5v134q0 122 -35.5 194.5t-120.5 72.5t-120.5 -73t-35.5 -194v-134z M823 1532q0 -95 -51 -161.5t-130 -66.5q-59 0 -136.5 44t-121.5 44q-27 0 -46 -33t-19 -79l-149 43q0 93 51.5 161t129.5 68q46 0 129.5 -44t128.5 -44q27 0 46.5 32.5t19.5 80.5z" />
<glyph unicode="&#xf6;" d="M58 607q0 218 115.5 356.5t323.5 138.5t324 -138.5t116 -356.5v-134q0 -220 -116 -357t-323 -137q-209 0 -324.5 137t-115.5 357v134zM341 473q0 -125 35 -196t122 -71q84 0 119.5 71.5t35.5 195.5v134q0 122 -35.5 194.5t-120.5 72.5t-120.5 -73t-35.5 -194v-134z M845 1284h-250v198h250v-198zM397 1284h-251v198h251v-198z" />
<glyph unicode="&#xf7;" horiz-adv-x="1005" d="M937 577h-878v221h878v-221zM638 971h-281v230h281v-230zM638 167h-281v230h281v-230z" />
<glyph unicode="&#xf8;" horiz-adv-x="997" d="M58 607q0 218 115.5 356.5t323.5 138.5q40 0 78 -6t73 -17l57 138h152l-85 -206q80 -66 122.5 -170.5t42.5 -233.5v-134q0 -220 -116 -357t-323 -137q-40 0 -75.5 5.5t-68.5 14.5l-58 -142h-151l85 206q-85 64 -128.5 170t-43.5 240v134zM341 473q0 -35 1.5 -62t6.5 -43 l6 -1l203 494q-14 6 -29.5 9.5t-31.5 3.5q-85 0 -120.5 -73t-35.5 -194v-134zM653 607q0 27 -2 49.5t-4 36.5l-6 1l-197 -479q12 -5 25 -7t29 -2q84 0 119.5 71.5t35.5 195.5v134z" />
<glyph unicode="&#xf9;" d="M641 125q-44 -71 -106.5 -108.5t-141.5 -37.5q-145 0 -226.5 109.5t-81.5 339.5v654h284v-656q0 -115 28 -167t83 -52q47 0 82.5 17.5t60.5 51.5v806h285v-1082h-250zM639 1216h-230l-246 260l3 6h298z" />
<glyph unicode="&#xfa;" d="M641 125q-44 -71 -106.5 -108.5t-141.5 -37.5q-145 0 -226.5 109.5t-81.5 339.5v654h284v-656q0 -115 28 -167t83 -52q47 0 82.5 17.5t60.5 51.5v806h285v-1082h-250zM525 1483h299l3 -6l-249 -260h-229z" />
<glyph unicode="&#xfb;" d="M641 125q-44 -71 -106.5 -108.5t-141.5 -37.5q-145 0 -226.5 109.5t-81.5 339.5v654h284v-656q0 -115 28 -167t83 -52q47 0 82.5 17.5t60.5 51.5v806h285v-1082h-250zM829 1272v-22h-222l-114 134l-112 -134h-217v25l250 237h159z" />
<glyph unicode="&#xfc;" d="M641 125q-44 -71 -106.5 -108.5t-141.5 -37.5q-145 0 -226.5 109.5t-81.5 339.5v654h284v-656q0 -115 28 -167t83 -52q47 0 82.5 17.5t60.5 51.5v806h285v-1082h-250zM843 1263h-250v198h250v-198zM395 1263h-251v198h251v-198z" />
<glyph unicode="&#xfd;" horiz-adv-x="909" d="M440 444l2 -11l158 649h304l-365 -1245q-41 -117 -109.5 -195.5t-209.5 -78.5q-35 0 -62 6t-72 18l33 212q17 -3 24.5 -4.5t16.5 -1.5q62 0 93.5 32.5t45.5 85.5l25 80l-319 1091h305zM483 1483h299l3 -6l-249 -260h-229z" />
<glyph unicode="&#xfe;" horiz-adv-x="999" d="M941 458q0 -216 -94 -347.5t-263 -131.5q-66 0 -117.5 26.5t-89.5 78.5v-500h-284v1976h284v-570q38 54 89 83t116 29q171 0 265 -140.5t94 -370.5v-133zM657 591q0 128 -36 205.5t-113 77.5q-45 0 -78 -22.5t-53 -63.5v-511q20 -35 52.5 -53t79.5 -18q79 0 113.5 67 t34.5 185v133z" />
<glyph unicode="&#xff;" horiz-adv-x="909" d="M440 444l2 -11l158 649h304l-365 -1245q-41 -117 -109.5 -195.5t-209.5 -78.5q-35 0 -62 6t-72 18l33 212q17 -3 24.5 -4.5t16.5 -1.5q62 0 93.5 32.5t45.5 85.5l25 80l-319 1091h305zM803 1263h-250v198h250v-198zM355 1263h-251v198h251v-198z" />
<glyph unicode="&#x100;" horiz-adv-x="1134" d="M765 309h-384l-78 -309h-287l410 1456h296l409 -1456h-287zM439 538h268l-131 515h-6zM902 1617h-654v160h654v-160z" />
<glyph unicode="&#x101;" horiz-adv-x="944" d="M619 0q-12 27 -21.5 59t-14.5 65q-40 -66 -97.5 -105.5t-133.5 -39.5q-134 0 -214.5 88t-80.5 235q0 159 102.5 247t304.5 88h107v88q0 79 -28.5 121.5t-85.5 42.5q-48 0 -72 -34t-24 -99l-275 1l-3 6q-5 141 104.5 240t288.5 99q169 0 274.5 -98.5t105.5 -280.5v-438 q0 -80 11 -149t34 -136h-282zM434 193q43 0 79.5 23t57.5 59v199h-107q-65 0 -94 -45t-29 -114q0 -54 25 -88t68 -34zM797 1297h-654v160h654v-160z" />
<glyph unicode="&#x102;" horiz-adv-x="1134" d="M765 309h-384l-78 -309h-287l410 1456h296l409 -1456h-287zM439 538h268l-131 515h-6zM884 1897l2 -6q4 -129 -81.5 -209.5t-229.5 -80.5q-146 0 -232 81t-81 209l2 6h207q0 -53 25.5 -87t78.5 -34q51 0 75.5 34t24.5 87h209z" />
<glyph unicode="&#x103;" horiz-adv-x="944" d="M619 0q-12 27 -21.5 59t-14.5 65q-40 -66 -97.5 -105.5t-133.5 -39.5q-134 0 -214.5 88t-80.5 235q0 159 102.5 247t304.5 88h107v88q0 79 -28.5 121.5t-85.5 42.5q-48 0 -72 -34t-24 -99l-275 1l-3 6q-5 141 104.5 240t288.5 99q169 0 274.5 -98.5t105.5 -280.5v-438 q0 -80 11 -149t34 -136h-282zM434 193q43 0 79.5 23t57.5 59v199h-107q-65 0 -94 -45t-29 -114q0 -54 25 -88t68 -34zM777 1575l2 -6q4 -129 -81.5 -209.5t-229.5 -80.5q-146 0 -232 81t-81 209l2 6h207q0 -53 25.5 -87t78.5 -34q51 0 75.5 34t24.5 87h209z" />
<glyph unicode="&#x104;" horiz-adv-x="1134" d="M765 309h-384l-78 -309h-287l410 1456h296l409 -1456h-287zM439 538h268l-131 515h-6zM1044 0q-40 -53 -58 -89t-18 -85q0 -23 13 -44.5t57 -21.5q23 0 40 5.5t37 14.5l32 -151q-31 -18 -70.5 -31t-92.5 -13q-98 0 -161.5 54.5t-63.5 152.5q0 76 37.5 144t118.5 120z" />
<glyph unicode="&#x105;" horiz-adv-x="944" d="M619 0q-12 27 -21.5 59t-14.5 65q-40 -66 -97.5 -105.5t-133.5 -39.5q-134 0 -214.5 88t-80.5 235q0 159 102.5 247t304.5 88h107v88q0 79 -28.5 121.5t-85.5 42.5q-48 0 -72 -34t-24 -99l-275 1l-3 6q-5 141 104.5 240t288.5 99q169 0 274.5 -98.5t105.5 -280.5v-438 q0 -80 11 -149t34 -136h-282zM434 193q43 0 79.5 23t57.5 59v199h-107q-65 0 -94 -45t-29 -114q0 -54 25 -88t68 -34zM813 0q-40 -53 -58 -89t-18 -85q0 -23 13 -44.5t57 -21.5q23 0 40 5.5t37 14.5l32 -151q-31 -18 -70.5 -31t-92.5 -13q-98 0 -161.5 54.5t-63.5 152.5 q0 76 37.5 144t118.5 120z" />
<glyph unicode="&#x106;" horiz-adv-x="1088" d="M1023 469l3 -6q2 -240 -114 -362t-342 -122t-361 138.5t-135 392.5v435q0 253 130.5 392.5t349.5 139.5q232 0 350.5 -124t122.5 -367l-3 -6h-274q6 143 -39 206t-157 63q-96 0 -147 -75t-51 -227v-437q0 -154 54.5 -229t159.5 -75q103 0 143.5 59.5t35.5 203.5h274z M590 1847h299l3 -6l-249 -260h-229z" />
<glyph unicode="&#x107;" horiz-adv-x="910" d="M487 206q58 0 87.5 43t29.5 124h258l3 -6q3 -170 -104.5 -279t-273.5 -109q-210 0 -322.5 137t-112.5 354v139q0 216 112 354.5t321 138.5q176 0 279.5 -113t100.5 -305l-2 -5h-259q0 88 -29.5 141.5t-89.5 53.5q-85 0 -117 -72t-32 -193v-139q0 -124 32 -194t119 -70z M486 1504h299l3 -6l-249 -260h-229z" />
<glyph unicode="&#x108;" horiz-adv-x="1088" d="M1023 469l3 -6q2 -240 -114 -362t-342 -122t-361 138.5t-135 392.5v435q0 253 130.5 392.5t349.5 139.5q232 0 350.5 -124t122.5 -367l-3 -6h-274q6 143 -39 206t-157 63q-96 0 -147 -75t-51 -227v-437q0 -154 54.5 -229t159.5 -75q103 0 143.5 59.5t35.5 203.5h274z M894 1634v-22h-222l-114 134l-112 -134h-217v25l250 237h159z" />
<glyph unicode="&#x109;" horiz-adv-x="910" d="M487 206q58 0 87.5 43t29.5 124h258l3 -6q3 -170 -104.5 -279t-273.5 -109q-210 0 -322.5 137t-112.5 354v139q0 216 112 354.5t321 138.5q176 0 279.5 -113t100.5 -305l-2 -5h-259q0 88 -29.5 141.5t-89.5 53.5q-85 0 -117 -72t-32 -193v-139q0 -124 32 -194t119 -70z M790 1291v-22h-222l-114 134l-112 -134h-217v25l250 237h159z" />
<glyph unicode="&#x10a;" horiz-adv-x="1088" d="M1023 469l3 -6q2 -240 -114 -362t-342 -122t-361 138.5t-135 392.5v435q0 253 130.5 392.5t349.5 139.5q232 0 350.5 -124t122.5 -367l-3 -6h-274q6 143 -39 206t-157 63q-96 0 -147 -75t-51 -227v-437q0 -154 54.5 -229t159.5 -75q103 0 143.5 59.5t35.5 203.5h274z M700 1628h-291v241h291v-241z" />
<glyph unicode="&#x10b;" horiz-adv-x="910" d="M487 206q58 0 87.5 43t29.5 124h258l3 -6q3 -170 -104.5 -279t-273.5 -109q-210 0 -322.5 137t-112.5 354v139q0 216 112 354.5t321 138.5q176 0 279.5 -113t100.5 -305l-2 -5h-259q0 88 -29.5 141.5t-89.5 53.5q-85 0 -117 -72t-32 -193v-139q0 -124 32 -194t119 -70z M596 1285h-291v241h291v-241z" />
<glyph unicode="&#x10c;" horiz-adv-x="1088" d="M1023 469l3 -6q2 -240 -114 -362t-342 -122t-361 138.5t-135 392.5v435q0 253 130.5 392.5t349.5 139.5q232 0 350.5 -124t122.5 -367l-3 -6h-274q6 143 -39 206t-157 63q-96 0 -147 -75t-51 -227v-437q0 -154 54.5 -229t159.5 -75q103 0 143.5 59.5t35.5 203.5h274z M558 1766l88 127h256v-17l-248 -253h-192l-248 255v15h256z" />
<glyph unicode="&#x10d;" horiz-adv-x="910" d="M487 206q58 0 87.5 43t29.5 124h258l3 -6q3 -170 -104.5 -279t-273.5 -109q-210 0 -322.5 137t-112.5 354v139q0 216 112 354.5t321 138.5q176 0 279.5 -113t100.5 -305l-2 -5h-259q0 88 -29.5 141.5t-89.5 53.5q-85 0 -117 -72t-32 -193v-139q0 -124 32 -194t119 -70z M454 1423l88 127h256v-17l-248 -253h-192l-248 255v15h256z" />
<glyph unicode="&#x10e;" horiz-adv-x="1151" d="M110 0v1456h440q224 0 370 -169.5t146 -436.5v-245q0 -267 -146 -436t-370 -169h-440zM395 1228v-1001h139q119 0 183.5 103.5t64.5 274.5v247q0 170 -64.5 273t-183.5 103h-139zM506 1745l88 127h256v-17l-248 -253h-192l-248 255v15h256z" />
<glyph unicode="&#x10f;" horiz-adv-x="1145" d="M54 535q0 255 94 411t265 156q63 0 114 -30t91 -86v574h284v-1560h-247l-19 118q-42 -68 -97.5 -103.5t-126.5 -35.5q-171 0 -264.5 146.5t-93.5 388.5v21zM338 514q0 -145 33.5 -226t113.5 -81q44 0 77 20.5t56 59.5v492q-23 45 -56 70t-75 25q-79 0 -114 -93t-35 -246 v-21zM1189 1398l-119 -231h-114l53 240v152h180v-161z" />
<glyph unicode="&#x110;" horiz-adv-x="1181" d="M140 0v655h-109v175h109v626h440q224 0 370 -169.5t146 -436.5v-245q0 -267 -146 -436t-370 -169h-440zM612 655h-187v-428h139q119 0 183.5 103.5t64.5 274.5v247q0 170 -64.5 273t-183.5 103h-139v-398h187v-175z" />
<glyph unicode="&#x111;" horiz-adv-x="1025" d="M1014 1223h-112v-1223h-247l-19 118q-42 -68 -97.5 -103.5t-126.5 -35.5q-171 0 -264.5 146.5t-93.5 388.5v21q0 255 94 411t265 156q63 0 114 -30t91 -86v237h-185v175h185v162h284v-162h112v-175zM338 514q0 -145 33.5 -226t113.5 -81q44 0 77 20.5t56 59.5v492 q-23 45 -56 70t-75 25q-79 0 -114 -93t-35 -246v-21z" />
<glyph unicode="&#x112;" horiz-adv-x="1008" d="M884 639h-489v-412h575v-227h-860v1456h858v-228h-573v-362h489v-227zM842 1617h-654v160h654v-160z" />
<glyph unicode="&#x113;" horiz-adv-x="938" d="M513 -21q-204 0 -324 134t-120 338v152q0 219 111.5 359t308.5 140q190 0 294 -127t104 -346v-174h-535v-4q0 -107 48.5 -176t146.5 -69q80 0 130 18t119 60l72 -181q-56 -54 -149.5 -89t-205.5 -35zM489 874q-68 0 -100 -62t-36 -167h255v40q0 90 -28 139.5t-91 49.5z M796 1297h-654v160h654v-160z" />
<glyph unicode="&#x114;" horiz-adv-x="1008" d="M884 639h-489v-412h575v-227h-860v1456h858v-228h-573v-362h489v-227zM824 1897l2 -6q4 -129 -81.5 -209.5t-229.5 -80.5q-146 0 -232 81t-81 209l2 6h207q0 -53 25.5 -87t78.5 -34q51 0 75.5 34t24.5 87h209z" />
<glyph unicode="&#x115;" horiz-adv-x="938" d="M513 -21q-204 0 -324 134t-120 338v152q0 219 111.5 359t308.5 140q190 0 294 -127t104 -346v-174h-535v-4q0 -107 48.5 -176t146.5 -69q80 0 130 18t119 60l72 -181q-56 -54 -149.5 -89t-205.5 -35zM489 874q-68 0 -100 -62t-36 -167h255v40q0 90 -28 139.5t-91 49.5z M776 1576l2 -6q4 -129 -81.5 -209.5t-229.5 -80.5q-146 0 -232 81t-81 209l2 6h207q0 -53 25.5 -87t78.5 -34q51 0 75.5 34t24.5 87h209z" />
<glyph unicode="&#x116;" horiz-adv-x="1008" d="M884 639h-489v-412h575v-227h-860v1456h858v-228h-573v-362h489v-227zM655 1607h-291v241h291v-241z" />
<glyph unicode="&#x117;" horiz-adv-x="938" d="M513 -21q-204 0 -324 134t-120 338v152q0 219 111.5 359t308.5 140q190 0 294 -127t104 -346v-174h-535v-4q0 -107 48.5 -176t146.5 -69q80 0 130 18t119 60l72 -181q-56 -54 -149.5 -89t-205.5 -35zM489 874q-68 0 -100 -62t-36 -167h255v40q0 90 -28 139.5t-91 49.5z M607 1286h-291v241h291v-241z" />
<glyph unicode="&#x118;" horiz-adv-x="1008" d="M884 639h-489v-412h575v-227h-860v1456h858v-228h-573v-362h489v-227zM595 0q-40 -53 -58 -89t-18 -85q0 -23 13 -44.5t57 -21.5q23 0 40 5.5t37 14.5l32 -151q-31 -18 -70.5 -31t-92.5 -13q-98 0 -161.5 54.5t-63.5 152.5q0 76 37.5 144t118.5 120z" />
<glyph unicode="&#x119;" horiz-adv-x="938" d="M513 -21q-204 0 -324 134t-120 338v152q0 219 111.5 359t308.5 140q190 0 294 -127t104 -346v-174h-535v-4q0 -107 48.5 -176t146.5 -69q80 0 130 18t119 60l72 -181q-56 -54 -149.5 -89t-205.5 -35zM489 874q-68 0 -100 -62t-36 -167h255v40q0 90 -28 139.5t-91 49.5z M754 40q-40 -53 -58 -89t-18 -85q0 -23 13 -44.5t57 -21.5q23 0 40 5.5t37 14.5l32 -151q-31 -18 -70.5 -31t-92.5 -13q-98 0 -161.5 54.5t-63.5 152.5q0 76 37.5 144t118.5 120z" />
<glyph unicode="&#x11a;" horiz-adv-x="1008" d="M884 639h-489v-412h575v-227h-860v1456h858v-228h-573v-362h489v-227zM513 1745l88 127h256v-17l-248 -253h-192l-248 255v15h256z" />
<glyph unicode="&#x11b;" horiz-adv-x="938" d="M513 -21q-204 0 -324 134t-120 338v152q0 219 111.5 359t308.5 140q190 0 294 -127t104 -346v-174h-535v-4q0 -107 48.5 -176t146.5 -69q80 0 130 18t119 60l72 -181q-56 -54 -149.5 -89t-205.5 -35zM489 874q-68 0 -100 -62t-36 -167h255v40q0 90 -28 139.5t-91 49.5z M465 1424l88 127h256v-17l-248 -253h-192l-248 255v15h256z" />
<glyph unicode="&#x11c;" horiz-adv-x="1179" d="M1074 216q-59 -94 -177 -165.5t-299 -71.5q-234 0 -375.5 137t-141.5 390v444q0 251 136.5 389t361.5 138q242 0 363 -118.5t126 -339.5l-2 -6h-267q-3 123 -54.5 179.5t-157.5 56.5q-104 0 -163 -73.5t-59 -223.5v-446q0 -153 59.5 -226.5t173.5 -73.5q85 0 125.5 23 t66.5 68v261h-192v200h476v-542zM911 1634v-22h-222l-114 134l-112 -134h-217v25l250 237h159z" />
<glyph unicode="&#x11d;" horiz-adv-x="994" d="M54 591q0 229 94.5 370t266.5 141q72 0 127 -36.5t96 -104.5l18 121h247v-1061q0 -213 -123.5 -335.5t-338.5 -122.5q-70 0 -149 22.5t-147 60.5l50 219q57 -32 116 -48t128 -16q90 0 135 56.5t45 164.5v62q-40 -52 -91 -78.5t-115 -26.5q-171 0 -265 131.5t-94 347.5 v133zM338 458q0 -118 34 -184.5t114 -66.5q44 0 77.5 18t55.5 53v512q-22 40 -54.5 62t-76.5 22q-80 0 -115 -77.5t-35 -205.5v-133zM811 1291v-22h-222l-114 134l-112 -134h-217v25l250 237h159z" />
<glyph unicode="&#x11e;" horiz-adv-x="1179" d="M1074 216q-59 -94 -177 -165.5t-299 -71.5q-234 0 -375.5 137t-141.5 390v444q0 251 136.5 389t361.5 138q242 0 363 -118.5t126 -339.5l-2 -6h-267q-3 123 -54.5 179.5t-157.5 56.5q-104 0 -163 -73.5t-59 -223.5v-446q0 -153 59.5 -226.5t173.5 -73.5q85 0 125.5 23 t66.5 68v261h-192v200h476v-542zM886 1918l2 -6q4 -129 -81.5 -209.5t-229.5 -80.5q-146 0 -232 81t-81 209l2 6h207q0 -53 25.5 -87t78.5 -34q51 0 75.5 34t24.5 87h209z" />
<glyph unicode="&#x11f;" horiz-adv-x="994" d="M54 591q0 229 94.5 370t266.5 141q72 0 127 -36.5t96 -104.5l18 121h247v-1061q0 -213 -123.5 -335.5t-338.5 -122.5q-70 0 -149 22.5t-147 60.5l50 219q57 -32 116 -48t128 -16q90 0 135 56.5t45 164.5v62q-40 -52 -91 -78.5t-115 -26.5q-171 0 -265 131.5t-94 347.5 v133zM338 458q0 -118 34 -184.5t114 -66.5q44 0 77.5 18t55.5 53v512q-22 40 -54.5 62t-76.5 22q-80 0 -115 -77.5t-35 -205.5v-133zM786 1575l2 -6q4 -129 -81.5 -209.5t-229.5 -80.5q-146 0 -232 81t-81 209l2 6h207q0 -53 25.5 -87t78.5 -34q51 0 75.5 34t24.5 87h209z " />
<glyph unicode="&#x120;" horiz-adv-x="1179" d="M1074 216q-59 -94 -177 -165.5t-299 -71.5q-234 0 -375.5 137t-141.5 390v444q0 251 136.5 389t361.5 138q242 0 363 -118.5t126 -339.5l-2 -6h-267q-3 123 -54.5 179.5t-157.5 56.5q-104 0 -163 -73.5t-59 -223.5v-446q0 -153 59.5 -226.5t173.5 -73.5q85 0 125.5 23 t66.5 68v261h-192v200h476v-542zM717 1628h-291v241h291v-241z" />
<glyph unicode="&#x121;" horiz-adv-x="994" d="M54 591q0 229 94.5 370t266.5 141q72 0 127 -36.5t96 -104.5l18 121h247v-1061q0 -213 -123.5 -335.5t-338.5 -122.5q-70 0 -149 22.5t-147 60.5l50 219q57 -32 116 -48t128 -16q90 0 135 56.5t45 164.5v62q-40 -52 -91 -78.5t-115 -26.5q-171 0 -265 131.5t-94 347.5 v133zM338 458q0 -118 34 -184.5t114 -66.5q44 0 77.5 18t55.5 53v512q-22 40 -54.5 62t-76.5 22q-80 0 -115 -77.5t-35 -205.5v-133zM617 1285h-291v241h291v-241z" />
<glyph unicode="&#x122;" horiz-adv-x="1179" d="M1074 216q-59 -94 -177 -165.5t-299 -71.5q-234 0 -375.5 137t-141.5 390v444q0 251 136.5 389t361.5 138q242 0 363 -118.5t126 -339.5l-2 -6h-267q-3 123 -54.5 179.5t-157.5 56.5q-104 0 -163 -73.5t-59 -223.5v-446q0 -153 59.5 -226.5t173.5 -73.5q85 0 125.5 23 t66.5 68v261h-192v200h476v-542zM676 -258l-119 -231h-114l53 240v152h180v-161z" />
<glyph unicode="&#x123;" horiz-adv-x="994" d="M54 591q0 229 94.5 370t266.5 141q72 0 127 -36.5t96 -104.5l18 121h247v-1061q0 -213 -123.5 -335.5t-338.5 -122.5q-70 0 -149 22.5t-147 60.5l50 219q57 -32 116 -48t128 -16q90 0 135 56.5t45 164.5v62q-40 -52 -91 -78.5t-115 -26.5q-171 0 -265 131.5t-94 347.5 v133zM338 458q0 -118 34 -184.5t114 -66.5q44 0 77.5 18t55.5 53v512q-22 40 -54.5 62t-76.5 22q-80 0 -115 -77.5t-35 -205.5v-133zM358 1438l101 257h155l-30 -265v-170h-226v178z" />
<glyph unicode="&#x124;" horiz-adv-x="1241" d="M1131 0h-284v603h-452v-603h-285v1456h285v-626h452v626h284v-1456zM955 1613v-22h-222l-114 134l-112 -134h-217v25l250 237h159z" />
<glyph unicode="&#x125;" d="M368 953q42 71 101 110t130 39q144 0 226 -114.5t82 -353.5v-634h-285v636q0 134 -31.5 186t-98.5 52q-40 0 -71 -17.5t-53 -48.5v-808h-284v1560h284v-607zM787 1615v-22h-222l-114 134l-112 -134h-217v25l250 237h159z" />
<glyph unicode="&#x126;" horiz-adv-x="1245" d="M1135 1196h100v-167h-100v-1029h-284v603h-452v-603h-285v1029h-94v167h94v260h285v-260h452v260h284v-260zM399 830h452v199h-452v-199z" />
<glyph unicode="&#x127;" horiz-adv-x="1025" d="M580 1220h-182v-267q42 71 101 110t130 39q144 0 226 -114.5t82 -353.5v-634h-285v636q0 134 -31.5 186t-98.5 52q-40 0 -71 -17.5t-53 -48.5v-808h-284v1220h-115v175h115v165h284v-165h182v-175z" />
<glyph unicode="&#x128;" horiz-adv-x="534" d="M408 0h-283v1456h283v-1456zM597 1854q0 -95 -51 -161.5t-130 -66.5q-59 0 -136.5 44t-121.5 44q-27 0 -46 -33t-19 -79l-149 43q0 93 51.5 161t129.5 68q46 0 129.5 -44t128.5 -44q27 0 46.5 32.5t19.5 80.5z" />
<glyph unicode="&#x129;" horiz-adv-x="513" d="M398 0h-285v1082h285v-1082zM585 1511q0 -95 -51 -161.5t-130 -66.5q-59 0 -136.5 44t-121.5 44q-27 0 -46 -33t-19 -79l-149 43q0 93 51.5 161t129.5 68q46 0 129.5 -44t128.5 -44q27 0 46.5 32.5t19.5 80.5z" />
<glyph unicode="&#x12a;" horiz-adv-x="534" d="M408 0h-283v1456h283v-1456zM598 1617h-654v160h654v-160z" />
<glyph unicode="&#x12b;" horiz-adv-x="513" d="M398 0h-285v1082h285v-1082zM586 1276h-654v160h654v-160z" />
<glyph unicode="&#x12c;" horiz-adv-x="534" d="M408 0h-283v1456h283v-1456zM580 1897l2 -6q4 -129 -81.5 -209.5t-229.5 -80.5q-146 0 -232 81t-81 209l2 6h207q0 -53 25.5 -87t78.5 -34q51 0 75.5 34t24.5 87h209z" />
<glyph unicode="&#x12d;" horiz-adv-x="513" d="M398 0h-285v1082h285v-1082zM568 1554l2 -6q4 -129 -81.5 -209.5t-229.5 -80.5q-146 0 -232 81t-81 209l2 6h207q0 -53 25.5 -87t78.5 -34q51 0 75.5 34t24.5 87h209z" />
<glyph unicode="&#x12e;" horiz-adv-x="534" d="M408 0h-283v1456h283v-1456zM322 0q-40 -53 -58 -89t-18 -85q0 -23 13 -44.5t57 -21.5q23 0 40 5.5t37 14.5l32 -151q-31 -18 -70.5 -31t-92.5 -13q-98 0 -161.5 54.5t-63.5 152.5q0 76 37.5 144t118.5 120z" />
<glyph unicode="&#x12f;" horiz-adv-x="495" d="M389 0h-284v1082h284v-1082zM389 1343h-284v217h284v-217zM303 0q-40 -53 -58 -89t-18 -85q0 -23 13 -44.5t57 -21.5q23 0 40 5.5t37 14.5l32 -151q-31 -18 -70.5 -31t-92.5 -13q-98 0 -161.5 54.5t-63.5 152.5q0 76 37.5 144t118.5 120z" />
<glyph unicode="&#x130;" horiz-adv-x="534" d="M408 0h-283v1456h283v-1456zM411 1607h-291v241h291v-241z" />
<glyph unicode="&#x131;" horiz-adv-x="513" d="M398 0h-285v1082h285v-1082z" />
<glyph unicode="&#x132;" horiz-adv-x="1549" d="M408 0h-283v1456h283v-1456zM1157 1456h283v-1012q0 -214 -120.5 -339.5t-303.5 -125.5q-198 0 -313.5 112t-111.5 330l3 6h277q0 -115 40.5 -168t104.5 -53q58 0 99.5 63t41.5 175v1012z" />
<glyph unicode="&#x133;" horiz-adv-x="982" d="M389 0h-284v1082h284v-1082zM389 1343h-284v217h284v-217zM890 1082v-1115q0 -194 -90 -299t-250 -105q-35 0 -64 4.5t-64 13.5l12 223q22 -6 40 -9t40 -3q44 0 67.5 44t23.5 131v1115h285zM884 1343h-284v217h284v-217z" />
<glyph unicode="&#x134;" horiz-adv-x="1015" d="M623 1456h283v-1012q0 -214 -120.5 -339.5t-303.5 -125.5q-198 0 -313.5 112t-111.5 330l3 6h277q0 -115 40.5 -168t104.5 -53q58 0 99.5 63t41.5 175v1012zM1083 1608v-22h-222l-114 134l-112 -134h-217v25l250 237h159z" />
<glyph unicode="&#x135;" horiz-adv-x="528" d="M411 1082v-1115q0 -194 -90 -299t-250 -105q-35 0 -64 4.5t-64 13.5l13 222q21 -6 39 -9t42 -3q43 0 66.5 45.5t23.5 130.5v1115h284zM585 1267v-22h-222l-114 134l-112 -134h-217v25l250 237h159z" />
<glyph unicode="&#x136;" horiz-adv-x="1137" d="M519 605h-124v-605h-285v1456h285v-592h92l284 592h349l-397 -665l430 -791h-346zM642 -258l-119 -231h-114l53 240v152h180v-161z" />
<glyph unicode="&#x137;" horiz-adv-x="963" d="M428 450h-52v-450h-284v1560h284v-886h47l183 408h327l-282 -487l329 -595h-325zM578 -258l-119 -231h-114l53 240v152h180v-161z" />
<glyph unicode="&#x138;" horiz-adv-x="1062" d="M481 402h-88v-402h-284v1082h284v-409h66l199 409h361l-311 -493l2 1l315 -590h-364z" />
<glyph unicode="&#x139;" horiz-adv-x="959" d="M395 227h532v-227h-817v1456h285v-1229zM286 1810h299l3 -6l-249 -260h-229z" />
<glyph unicode="&#x13a;" horiz-adv-x="495" d="M389 0h-284v1560h284v-1560zM278 1890h299l3 -6l-249 -260h-229z" />
<glyph unicode="&#x13b;" horiz-adv-x="959" d="M395 227h532v-227h-817v1456h285v-1229zM601 -258l-119 -231h-114l53 240v152h180v-161z" />
<glyph unicode="&#x13c;" horiz-adv-x="495" d="M389 0h-284v1560h284v-1560zM331 -258l-119 -231h-114l53 240v152h180v-161z" />
<glyph unicode="&#x13d;" horiz-adv-x="959" d="M395 227h532v-227h-817v1456h285v-1229zM771 1298l-119 -231h-114l53 240v152h180v-161z" />
<glyph unicode="&#x13e;" horiz-adv-x="645" d="M389 0h-284v1560h284v-1560zM688 1398l-119 -231h-114l53 240v152h180v-161z" />
<glyph unicode="&#x13f;" horiz-adv-x="959" d="M395 227h532v-227h-817v1456h285v-1229zM780 680h-291v241h291v-241z" />
<glyph unicode="&#x140;" horiz-adv-x="715" d="M389 0h-284v1560h284v-1560zM750 628h-291v241h291v-241z" />
<glyph unicode="&#x141;" horiz-adv-x="889" d="M386 892l194 64v-191l-194 -64v-474h532v-227h-817v606l-87 -28v191l87 28v659h285v-564z" />
<glyph unicode="&#x142;" horiz-adv-x="532" d="M404 915l113 43v-191l-113 -43v-724h-284v618l-102 -38v191l102 38v751h284v-645z" />
<glyph unicode="&#x143;" horiz-adv-x="1241" d="M1129 0h-283l-445 931l-6 -2v-929h-285v1456h285l445 -930l6 2v928h283v-1456zM651 1826h299l3 -6l-249 -260h-229z" />
<glyph unicode="&#x144;" d="M352 1082l12 -149q45 80 110.5 124.5t144.5 44.5q135 0 212.5 -104t77.5 -327v-671h-285v671q0 112 -31.5 157.5t-97.5 45.5q-38 0 -70 -20t-54 -55v-799h-284v1082h265zM527 1504h299l3 -6l-249 -260h-229z" />
<glyph unicode="&#x145;" horiz-adv-x="1241" d="M1129 0h-283l-445 931l-6 -2v-929h-285v1456h285l445 -930l6 2v928h283v-1456zM704 -258l-119 -231h-114l53 240v152h180v-161z" />
<glyph unicode="&#x146;" d="M352 1082l12 -149q45 80 110.5 124.5t144.5 44.5q135 0 212.5 -104t77.5 -327v-671h-285v671q0 112 -31.5 157.5t-97.5 45.5q-38 0 -70 -20t-54 -55v-799h-284v1082h265zM580 -258l-119 -231h-114l53 240v152h180v-161z" />
<glyph unicode="&#x147;" horiz-adv-x="1241" d="M1129 0h-283l-445 931l-6 -2v-929h-285v1456h285l445 -930l6 2v928h283v-1456zM619 1745l88 127h256v-17l-248 -253h-192l-248 255v15h256z" />
<glyph unicode="&#x148;" d="M352 1082l12 -149q45 80 110.5 124.5t144.5 44.5q135 0 212.5 -104t77.5 -327v-671h-285v671q0 112 -31.5 157.5t-97.5 45.5q-38 0 -70 -20t-54 -55v-799h-284v1082h265zM495 1423l88 127h256v-17l-248 -253h-192l-248 255v15h256z" />
<glyph unicode="&#x149;" d="M352 1082l12 -149q45 80 110.5 124.5t144.5 44.5q135 0 212.5 -104t77.5 -327v-671h-285v671q0 112 -31.5 157.5t-97.5 45.5q-38 0 -70 -20t-54 -55v-799h-284v1082h265zM218 1397l-119 -231h-114l53 240v152h180v-161z" />
<glyph unicode="&#x14a;" horiz-adv-x="1234" d="M1127 1456v-1489q0 -194 -90 -299t-250 -105q-35 0 -66 4.5t-65 13.5l12 222q22 -6 41 -9t44 -3q43 0 67 45.5t24 130.5v33l-445 917l-6 -1v-916h-285v1456h285l445 -918l6 1v917h283z" />
<glyph unicode="&#x14b;" d="M352 1082l12 -147q45 79 110 123t144 44q135 0 212.5 -107.5t77.5 -338.5v-689q0 -194 -90 -299t-250 -105q-35 0 -65 4.5t-64 13.5l12 224q23 -6 41.5 -9.5t41.5 -3.5q43 0 66 45t23 130v689q0 120 -28 169t-85 49q-44 0 -78.5 -20t-59.5 -57v-797h-285v1082h265z" />
<glyph unicode="&#x14c;" horiz-adv-x="1166" d="M1091 523q0 -256 -139 -400t-370 -144t-369 144t-138 400v408q0 255 138 400.5t368 145.5t370 -145.5t140 -400.5v-408zM808 933q0 156 -58 235.5t-169 79.5q-112 0 -168 -79t-56 -236v-410q0 -158 57 -237t168 -79q110 0 168 79t58 237v410zM912 1638h-654v160h654v-160 z" />
<glyph unicode="&#x14d;" d="M58 607q0 218 115.5 356.5t323.5 138.5t324 -138.5t116 -356.5v-134q0 -220 -116 -357t-323 -137q-209 0 -324.5 137t-115.5 357v134zM341 473q0 -125 35 -196t122 -71q84 0 119.5 71.5t35.5 195.5v134q0 122 -35.5 194.5t-120.5 72.5t-120.5 -73t-35.5 -194v-134z M824 1297h-654v160h654v-160z" />
<glyph unicode="&#x14e;" horiz-adv-x="1166" d="M1091 523q0 -256 -139 -400t-370 -144t-369 144t-138 400v408q0 255 138 400.5t368 145.5t370 -145.5t140 -400.5v-408zM808 933q0 156 -58 235.5t-169 79.5q-112 0 -168 -79t-56 -236v-410q0 -158 57 -237t168 -79q110 0 168 79t58 237v410zM894 1918l2 -6 q4 -129 -81.5 -209.5t-229.5 -80.5q-146 0 -232 81t-81 209l2 6h207q0 -53 25.5 -87t78.5 -34q51 0 75.5 34t24.5 87h209z" />
<glyph unicode="&#x14f;" d="M58 607q0 218 115.5 356.5t323.5 138.5t324 -138.5t116 -356.5v-134q0 -220 -116 -357t-323 -137q-209 0 -324.5 137t-115.5 357v134zM341 473q0 -125 35 -196t122 -71q84 0 119.5 71.5t35.5 195.5v134q0 122 -35.5 194.5t-120.5 72.5t-120.5 -73t-35.5 -194v-134z M806 1575l2 -6q4 -129 -81.5 -209.5t-229.5 -80.5q-146 0 -232 81t-81 209l2 6h207q0 -53 25.5 -87t78.5 -34q51 0 75.5 34t24.5 87h209z" />
<glyph unicode="&#x150;" horiz-adv-x="1166" d="M1091 523q0 -256 -139 -400t-370 -144t-369 144t-138 400v408q0 255 138 400.5t368 145.5t370 -145.5t140 -400.5v-408zM808 933q0 156 -58 235.5t-169 79.5q-112 0 -168 -79t-56 -236v-410q0 -158 57 -237t168 -79q110 0 168 79t58 237v410zM811 1888h264l2 -5 l-238 -261h-230zM463 1888h268l-207 -266h-227z" />
<glyph unicode="&#x151;" d="M58 607q0 218 115.5 356.5t323.5 138.5t324 -138.5t116 -356.5v-134q0 -220 -116 -357t-323 -137q-209 0 -324.5 137t-115.5 357v134zM341 473q0 -125 35 -196t122 -71q84 0 119.5 71.5t35.5 195.5v134q0 122 -35.5 194.5t-120.5 72.5t-120.5 -73t-35.5 -194v-134z M723 1545h264l2 -5l-238 -261h-230zM375 1545h268l-207 -266h-227z" />
<glyph unicode="&#x152;" horiz-adv-x="1709" d="M1639 0h-783q-76 -10 -130.5 -15.5t-109.5 -5.5q-235 0 -382 166t-147 431v304q0 265 146 431t382 166q57 0 116.5 -6t124.5 -15h781v-228h-573v-362h489v-227h-489v-412h575v-227zM616 206q41 0 82 3t81 10v1018q-41 6 -82 9.5t-82 3.5q-116 0 -180 -95t-64 -273v-306 q0 -179 65 -274.5t180 -95.5z" />
<glyph unicode="&#x153;" horiz-adv-x="1571" d="M75 551q0 244 115 397.5t323 153.5q92 0 168 -32.5t132 -92.5q53 60 125 92.5t160 32.5q190 0 294 -130.5t104 -355.5v-161h-532q8 -111 56.5 -180t135.5 -69q80 0 131 18t119 60l73 -181q-57 -54 -151 -89t-206 -35q-94 0 -171.5 33t-134.5 95q-56 -63 -132 -95.5 t-170 -32.5q-209 0 -324 152.5t-115 397.5v22zM359 529q0 -150 34.5 -236t117.5 -81h6q82 -5 117 81.5t35 235.5v22q0 146 -35.5 233.5t-117.5 83.5h-6q-82 4 -116.5 -83.5t-34.5 -233.5v-22zM1098 874q-61 0 -93 -61.5t-40 -167.5h253v27q0 95 -28.5 148.5t-91.5 53.5z" />
<glyph unicode="&#x154;" horiz-adv-x="1162" d="M395 579v-579h-284v1455h475q215 0 337.5 -113.5t122.5 -315.5q0 -114 -51 -196.5t-149 -131.5q112 -38 161.5 -126t49.5 -220v-103q0 -60 14 -128.5t49 -99.5v-21h-294q-35 32 -44 104t-9 147v99q0 109 -44.5 169t-127.5 60h-206zM395 806h190q87 0 132 53t45 151 q0 100 -45 159t-131 59h-191v-422zM576 1826h299l3 -6l-249 -260h-229z" />
<glyph unicode="&#x155;" horiz-adv-x="655" d="M603 823l-107 3q-45 0 -74.5 -22t-45.5 -62v-742h-284v1082h265l11 -145l5 -2q26 78 72.5 122.5t108.5 44.5q19 0 40.5 -3.5t37.5 -8.5zM388 1504h299l3 -6l-249 -260h-229z" />
<glyph unicode="&#x156;" horiz-adv-x="1162" d="M395 579v-579h-284v1455h475q215 0 337.5 -113.5t122.5 -315.5q0 -114 -51 -196.5t-149 -131.5q112 -38 161.5 -126t49.5 -220v-103q0 -60 14 -128.5t49 -99.5v-21h-294q-35 32 -44 104t-9 147v99q0 109 -44.5 169t-127.5 60h-206zM395 806h190q87 0 132 53t45 151 q0 100 -45 159t-131 59h-191v-422zM629 -258l-119 -231h-114l53 240v152h180v-161z" />
<glyph unicode="&#x157;" horiz-adv-x="655" d="M603 823l-107 3q-45 0 -74.5 -22t-45.5 -62v-742h-284v1082h265l11 -145l5 -2q26 78 72.5 122.5t108.5 44.5q19 0 40.5 -3.5t37.5 -8.5zM331 -258l-119 -231h-114l53 240v152h180v-161z" />
<glyph unicode="&#x158;" horiz-adv-x="1162" d="M395 579v-579h-284v1455h475q215 0 337.5 -113.5t122.5 -315.5q0 -114 -51 -196.5t-149 -131.5q112 -38 161.5 -126t49.5 -220v-103q0 -60 14 -128.5t49 -99.5v-21h-294q-35 32 -44 104t-9 147v99q0 109 -44.5 169t-127.5 60h-206zM395 806h190q87 0 132 53t45 151 q0 100 -45 159t-131 59h-191v-422zM544 1745l88 127h256v-17l-248 -253h-192l-248 255v15h256z" />
<glyph unicode="&#x159;" horiz-adv-x="655" d="M603 823l-107 3q-45 0 -74.5 -22t-45.5 -62v-742h-284v1082h265l11 -145l5 -2q26 78 72.5 122.5t108.5 44.5q19 0 40.5 -3.5t37.5 -8.5zM358 1423l88 127h256v-17l-248 -253h-192l-248 255v15h256z" />
<glyph unicode="&#x15a;" horiz-adv-x="1109" d="M757 380q0 85 -44 134.5t-155 97.5q-227 79 -340.5 179.5t-113.5 281.5q0 179 132 291.5t337 112.5q208 0 338 -125.5t126 -316.5l-2 -6h-276q0 100 -50 162t-141 62q-85 0 -132.5 -51.5t-47.5 -129.5q0 -72 53 -118.5t184 -103.5q207 -70 311.5 -177.5t104.5 -290.5 q0 -189 -126 -296t-335 -107q-208 0 -360.5 121.5t-147.5 348.5l2 6h277q0 -135 57 -194t172 -59q90 0 133.5 48t43.5 130zM587 1847h299l3 -6l-249 -260h-229z" />
<glyph unicode="&#x15b;" horiz-adv-x="888" d="M563 283q0 46 -36 79.5t-138 82.5q-163 61 -244.5 138t-81.5 200q0 132 104.5 225.5t276.5 93.5q180 0 287 -96t103 -245l-3 -6h-274q0 68 -28 108t-86 40q-46 0 -78 -31t-32 -75q0 -48 32 -77.5t139 -80.5q170 -58 252 -137.5t82 -208.5q0 -138 -110 -226t-289 -88 q-187 0 -296 109t-104 246l2 6h260q2 -86 40 -124t105 -38q57 0 87 28t30 77zM479 1504h299l3 -6l-249 -260h-229z" />
<glyph unicode="&#x15c;" horiz-adv-x="1109" d="M757 380q0 85 -44 134.5t-155 97.5q-227 79 -340.5 179.5t-113.5 281.5q0 179 132 291.5t337 112.5q208 0 338 -125.5t126 -316.5l-2 -6h-276q0 100 -50 162t-141 62q-85 0 -132.5 -51.5t-47.5 -129.5q0 -72 53 -118.5t184 -103.5q207 -70 311.5 -177.5t104.5 -290.5 q0 -189 -126 -296t-335 -107q-208 0 -360.5 121.5t-147.5 348.5l2 6h277q0 -135 57 -194t172 -59q90 0 133.5 48t43.5 130zM891 1634v-22h-222l-114 134l-112 -134h-217v25l250 237h159z" />
<glyph unicode="&#x15d;" horiz-adv-x="888" d="M563 283q0 46 -36 79.5t-138 82.5q-163 61 -244.5 138t-81.5 200q0 132 104.5 225.5t276.5 93.5q180 0 287 -96t103 -245l-3 -6h-274q0 68 -28 108t-86 40q-46 0 -78 -31t-32 -75q0 -48 32 -77.5t139 -80.5q170 -58 252 -137.5t82 -208.5q0 -138 -110 -226t-289 -88 q-187 0 -296 109t-104 246l2 6h260q2 -86 40 -124t105 -38q57 0 87 28t30 77zM783 1291v-22h-222l-114 134l-112 -134h-217v25l250 237h159z" />
<glyph unicode="&#x15e;" horiz-adv-x="1109" d="M757 380q0 85 -44 134.5t-155 97.5q-227 79 -340.5 179.5t-113.5 281.5q0 179 132 291.5t337 112.5q208 0 338 -125.5t126 -316.5l-2 -6h-276q0 100 -50 162t-141 62q-85 0 -132.5 -51.5t-47.5 -129.5q0 -72 53 -118.5t184 -103.5q207 -70 311.5 -177.5t104.5 -290.5 q0 -189 -126 -296t-335 -107q-208 0 -360.5 121.5t-147.5 348.5l2 6h277q0 -135 57 -194t172 -59q90 0 133.5 48t43.5 130zM684 -1l-9 -59q51 -11 86.5 -52.5t35.5 -120.5q0 -108 -80.5 -172.5t-227.5 -64.5l-6 163q34 0 53.5 20.5t19.5 63.5q0 42 -25.5 59t-86.5 22l27 141 h213z" />
<glyph unicode="&#x15f;" horiz-adv-x="888" d="M563 283q0 46 -36 79.5t-138 82.5q-163 61 -244.5 138t-81.5 200q0 132 104.5 225.5t276.5 93.5q180 0 287 -96t103 -245l-3 -6h-274q0 68 -28 108t-86 40q-46 0 -78 -31t-32 -75q0 -48 32 -77.5t139 -80.5q170 -58 252 -137.5t82 -208.5q0 -138 -110 -226t-289 -88 q-187 0 -296 109t-104 246l2 6h260q2 -86 40 -124t105 -38q57 0 87 28t30 77zM557 0l-9 -59q51 -11 86.5 -52.5t35.5 -120.5q0 -108 -80.5 -172.5t-227.5 -64.5l-6 163q34 0 53.5 20.5t19.5 63.5q0 42 -25.5 59t-86.5 22l27 141h213z" />
<glyph unicode="&#x160;" horiz-adv-x="1109" d="M757 380q0 85 -44 134.5t-155 97.5q-227 79 -340.5 179.5t-113.5 281.5q0 179 132 291.5t337 112.5q208 0 338 -125.5t126 -316.5l-2 -6h-276q0 100 -50 162t-141 62q-85 0 -132.5 -51.5t-47.5 -129.5q0 -72 53 -118.5t184 -103.5q207 -70 311.5 -177.5t104.5 -290.5 q0 -189 -126 -296t-335 -107q-208 0 -360.5 121.5t-147.5 348.5l2 6h277q0 -135 57 -194t172 -59q90 0 133.5 48t43.5 130zM555 1766l88 127h256v-17l-248 -253h-192l-248 255v15h256z" />
<glyph unicode="&#x161;" horiz-adv-x="888" d="M563 283q0 46 -36 79.5t-138 82.5q-163 61 -244.5 138t-81.5 200q0 132 104.5 225.5t276.5 93.5q180 0 287 -96t103 -245l-3 -6h-274q0 68 -28 108t-86 40q-46 0 -78 -31t-32 -75q0 -48 32 -77.5t139 -80.5q170 -58 252 -137.5t82 -208.5q0 -138 -110 -226t-289 -88 q-187 0 -296 109t-104 246l2 6h260q2 -86 40 -124t105 -38q57 0 87 28t30 77zM447 1423l88 127h256v-17l-248 -253h-192l-248 255v15h256z" />
<glyph unicode="&#x162;" horiz-adv-x="994" d="M967 1228h-328v-1228h-284v1228h-326v228h938v-228zM584 -258l-119 -231h-114l53 240v152h180v-161z" />
<glyph unicode="&#x163;" horiz-adv-x="648" d="M430 1351v-269h150v-206h-150v-543q0 -66 19 -94.5t52 -28.5q26 0 44 2.5t40 8.5l22 -216q-45 -14 -86 -20t-93 -6q-137 0 -209.5 84.5t-72.5 268.5v544h-128v206h128v269h284zM460 -258l-119 -231h-114l53 240v152h180v-161z" />
<glyph unicode="&#x164;" horiz-adv-x="994" d="M967 1228h-328v-1228h-284v1228h-326v228h938v-228zM500 1744l88 127h256v-17l-248 -253h-192l-248 255v15h256z" />
<glyph unicode="&#x165;" horiz-adv-x="688" d="M430 1351v-269h150v-206h-150v-543q0 -66 19 -94.5t52 -28.5q26 0 44 2.5t40 8.5l22 -216q-45 -14 -86 -20t-93 -6q-137 0 -209.5 84.5t-72.5 268.5v544h-128v206h128v269h284zM762 1424l-119 -231h-114l53 240v152h180v-161z" />
<glyph unicode="&#x166;" horiz-adv-x="994" d="M797 749h-158v-749h-284v749h-139v175h139v304h-326v228h938v-228h-328v-304h158v-175z" />
<glyph unicode="&#x167;" horiz-adv-x="648" d="M430 1351v-269h150v-206h-150v-168h149v-175h-149v-200q0 -66 19 -94.5t52 -28.5q26 0 44 2.5t40 8.5l22 -216q-45 -14 -86 -20t-93 -6q-137 0 -209.5 84.5t-72.5 268.5v201h-148v175h148v168h-128v206h128v269h284z" />
<glyph unicode="&#x168;" horiz-adv-x="1176" d="M1082 1456v-991q0 -233 -136.5 -359.5t-357.5 -126.5t-357.5 127t-136.5 359v991h284v-991q0 -133 55 -196t155 -63q103 0 157 60t54 199v991h283zM914 1854q0 -95 -51 -161.5t-130 -66.5q-59 0 -136.5 44t-121.5 44q-27 0 -46 -33t-19 -79l-149 43q0 93 51.5 161 t129.5 68q46 0 129.5 -44t128.5 -44q27 0 46.5 32.5t19.5 80.5z" />
<glyph unicode="&#x169;" d="M641 125q-44 -71 -106.5 -108.5t-141.5 -37.5q-145 0 -226.5 109.5t-81.5 339.5v654h284v-656q0 -115 28 -167t83 -52q47 0 82.5 17.5t60.5 51.5v806h285v-1082h-250zM821 1511q0 -95 -51 -161.5t-130 -66.5q-59 0 -136.5 44t-121.5 44q-27 0 -46 -33t-19 -79l-149 43 q0 93 51.5 161t129.5 68q46 0 129.5 -44t128.5 -44q27 0 46.5 32.5t19.5 80.5z" />
<glyph unicode="&#x16a;" horiz-adv-x="1176" d="M1082 1456v-991q0 -233 -136.5 -359.5t-357.5 -126.5t-357.5 127t-136.5 359v991h284v-991q0 -133 55 -196t155 -63q103 0 157 60t54 199v991h283zM915 1617h-654v160h654v-160z" />
<glyph unicode="&#x16b;" d="M641 125q-44 -71 -106.5 -108.5t-141.5 -37.5q-145 0 -226.5 109.5t-81.5 339.5v654h284v-656q0 -115 28 -167t83 -52q47 0 82.5 17.5t60.5 51.5v806h285v-1082h-250zM822 1276h-654v160h654v-160z" />
<glyph unicode="&#x16c;" horiz-adv-x="1176" d="M1082 1456v-991q0 -233 -136.5 -359.5t-357.5 -126.5t-357.5 127t-136.5 359v991h284v-991q0 -133 55 -196t155 -63q103 0 157 60t54 199v991h283zM897 1897l2 -6q4 -129 -81.5 -209.5t-229.5 -80.5q-146 0 -232 81t-81 209l2 6h207q0 -53 25.5 -87t78.5 -34 q51 0 75.5 34t24.5 87h209z" />
<glyph unicode="&#x16d;" d="M641 125q-44 -71 -106.5 -108.5t-141.5 -37.5q-145 0 -226.5 109.5t-81.5 339.5v654h284v-656q0 -115 28 -167t83 -52q47 0 82.5 17.5t60.5 51.5v806h285v-1082h-250zM804 1554l2 -6q4 -129 -81.5 -209.5t-229.5 -80.5q-146 0 -232 81t-81 209l2 6h207q0 -53 25.5 -87 t78.5 -34q51 0 75.5 34t24.5 87h209z" />
<glyph unicode="&#x16e;" horiz-adv-x="1176" d="M1082 1456v-991q0 -233 -136.5 -359.5t-357.5 -126.5t-357.5 127t-136.5 359v991h284v-991q0 -133 55 -196t155 -63q103 0 157 60t54 199v991h283zM394 1739q0 80 56 135t138 55q80 0 135 -55t55 -135q0 -82 -54.5 -134t-135.5 -52q-82 0 -138 52.5t-56 133.5zM502 1739 q0 -42 24 -68.5t62 -26.5q37 0 60 26t23 69t-23 70t-60 27q-38 0 -62 -27t-24 -70z" />
<glyph unicode="&#x16f;" d="M641 125q-44 -71 -106.5 -108.5t-141.5 -37.5q-145 0 -226.5 109.5t-81.5 339.5v654h284v-656q0 -115 28 -167t83 -52q47 0 82.5 17.5t60.5 51.5v806h285v-1082h-250zM301 1396q0 80 56 135t138 55q80 0 135 -55t55 -135q0 -82 -54.5 -134t-135.5 -52q-82 0 -138 52.5 t-56 133.5zM409 1396q0 -42 24 -68.5t62 -26.5q37 0 60 26t23 69t-23 70t-60 27q-38 0 -62 -27t-24 -70z" />
<glyph unicode="&#x170;" horiz-adv-x="1176" d="M1082 1456v-991q0 -233 -136.5 -359.5t-357.5 -126.5t-357.5 127t-136.5 359v991h284v-991q0 -133 55 -196t155 -63q103 0 157 60t54 199v991h283zM814 1867h264l2 -5l-238 -261h-230zM466 1867h268l-207 -266h-227z" />
<glyph unicode="&#x171;" d="M641 125q-44 -71 -106.5 -108.5t-141.5 -37.5q-145 0 -226.5 109.5t-81.5 339.5v654h284v-656q0 -115 28 -167t83 -52q47 0 82.5 17.5t60.5 51.5v806h285v-1082h-250zM721 1524h264l2 -5l-238 -261h-230zM373 1524h268l-207 -266h-227z" />
<glyph unicode="&#x172;" horiz-adv-x="1176" d="M1082 1456v-991q0 -233 -136.5 -359.5t-357.5 -126.5t-357.5 127t-136.5 359v991h284v-991q0 -133 55 -196t155 -63q103 0 157 60t54 199v991h283zM679 0q-40 -53 -58 -89t-18 -85q0 -23 13 -44.5t57 -21.5q23 0 40 5.5t37 14.5l32 -151q-31 -18 -70.5 -31t-92.5 -13 q-98 0 -161.5 54.5t-63.5 152.5q0 76 37.5 144t118.5 120z" />
<glyph unicode="&#x173;" d="M641 125q-44 -71 -106.5 -108.5t-141.5 -37.5q-145 0 -226.5 109.5t-81.5 339.5v654h284v-656q0 -115 28 -167t83 -52q47 0 82.5 17.5t60.5 51.5v806h285v-1082h-250zM818 0q-40 -53 -58 -89t-18 -85q0 -23 13 -44.5t57 -21.5q23 0 40 5.5t37 14.5l32 -151 q-31 -18 -70.5 -31t-92.5 -13q-98 0 -161.5 54.5t-63.5 152.5q0 76 37.5 144t118.5 120z" />
<glyph unicode="&#x174;" horiz-adv-x="1548" d="M1087 527h6l157 929h276l-281 -1456h-265l-205 892h-6l-203 -892h-264l-281 1456h276l157 -929h6l210 929h204zM1109 1613v-22h-222l-114 134l-112 -134h-217v25l250 237h159z" />
<glyph unicode="&#x175;" horiz-adv-x="1280" d="M882 468l6 1l101 613h263l-222 -1082h-237l-151 583h-6l-151 -583h-237l-224 1082h265l101 -616h6l151 616h184zM974 1272v-22h-222l-114 134l-112 -134h-217v25l250 237h159z" />
<glyph unicode="&#x176;" horiz-adv-x="1124" d="M558 832h6l243 624h309l-416 -938v-518h-284v536l-409 920h311zM905 1612v-22h-222l-114 134l-112 -134h-217v25l250 237h159z" />
<glyph unicode="&#x177;" horiz-adv-x="909" d="M440 444l2 -11l158 649h304l-365 -1245q-41 -117 -109.5 -195.5t-209.5 -78.5q-35 0 -62 6t-72 18l33 212q17 -3 24.5 -4.5t16.5 -1.5q62 0 93.5 32.5t45.5 85.5l25 80l-319 1091h305zM787 1272v-22h-222l-114 134l-112 -134h-217v25l250 237h159z" />
<glyph unicode="&#x178;" horiz-adv-x="1124" d="M558 832h6l243 624h309l-416 -938v-518h-284v536l-409 920h311zM919 1605h-250v198h250v-198zM471 1605h-251v198h251v-198z" />
<glyph unicode="&#x179;" horiz-adv-x="998" d="M386 227h559v-227h-879v143l546 1086h-552v227h876v-138zM529 1828h299l3 -6l-249 -260h-229z" />
<glyph unicode="&#x17a;" horiz-adv-x="883" d="M391 227h423v-227h-749v169l412 685h-400v228h730v-165zM469 1483h299l3 -6l-249 -260h-229z" />
<glyph unicode="&#x17b;" horiz-adv-x="998" d="M386 227h559v-227h-879v143l546 1086h-552v227h876v-138zM639 1609h-291v241h291v-241z" />
<glyph unicode="&#x17c;" horiz-adv-x="883" d="M391 227h423v-227h-749v169l412 685h-400v228h730v-165zM579 1264h-291v241h291v-241z" />
<glyph unicode="&#x17d;" horiz-adv-x="998" d="M386 227h559v-227h-879v143l546 1086h-552v227h876v-138zM497 1747l88 127h256v-17l-248 -253h-192l-248 255v15h256z" />
<glyph unicode="&#x17e;" horiz-adv-x="883" d="M391 227h423v-227h-749v169l412 685h-400v228h730v-165zM437 1402l88 127h256v-17l-248 -253h-192l-248 255v15h256z" />
<glyph unicode="&#x17f;" horiz-adv-x="479" d="M94 0v1202q0 182 94 280.5t264 98.5q32 0 66 -5.5t75 -15.5l-23 -217q-21 5 -39 7.5t-42 2.5q-54 0 -82.5 -39.5t-28.5 -111.5v-1202h-284z" />
<glyph unicode="&#x192;" horiz-adv-x="657" d="M606 876h-171v-909q0 -193 -90.5 -298.5t-250.5 -105.5q-35 0 -64.5 4.5t-62.5 13.5l12 222q19 -6 38 -9t43 -3q44 0 67.5 45t23.5 131v909h-132v206h132v120q0 182 94 280.5t264 98.5q33 0 67 -5.5t75 -15.5l-23 -218q-20 5 -39 7.5t-43 2.5q-54 0 -82.5 -39t-28.5 -111 v-120h171v-206z" />
<glyph unicode="&#x1a0;" horiz-adv-x="1234" d="M1093 523q0 -256 -139 -400t-370 -144t-369 144t-138 400v408q0 255 138 400.5t368 145.5q127 0 229.5 -46.5t170.5 -133.5q75 33 114 112.5t39 197.5h201q0 -189 -69 -315.5t-197 -179.5q10 -43 16 -88t6 -93v-408zM810 933q0 156 -58 235.5t-169 79.5q-112 0 -168 -79 t-56 -236v-410q0 -158 57 -237t168 -79q110 0 168 79t58 237v410z" />
<glyph unicode="&#x1a1;" horiz-adv-x="1033" d="M56 607q0 218 115.5 356.5t323.5 138.5q97 0 175.5 -32.5t135.5 -91.5q37 40 56.5 105.5t19.5 152.5h198q0 -141 -48.5 -241.5t-139.5 -152.5q21 -53 32 -112t11 -123v-134q0 -220 -116 -357t-323 -137q-209 0 -324.5 137t-115.5 357v134zM339 473q0 -125 35 -196 t122 -71q84 0 119.5 71.5t35.5 195.5v134q0 122 -35.5 194.5t-120.5 72.5t-120.5 -73t-35.5 -194v-134z" />
<glyph unicode="&#x1af;" horiz-adv-x="1266" d="M1082 1456v-190l6 -1q82 12 113 97t31 247h200q0 -243 -83.5 -376.5t-266.5 -153.5v-614q0 -233 -136.5 -359.5t-357.5 -126.5t-357.5 127t-136.5 359v991h284v-991q0 -133 55 -196t155 -63q103 0 157 60t54 199v991h283z" />
<glyph unicode="&#x1b0;" horiz-adv-x="1081" d="M1171 1186q0 -163 -64 -258t-199 -126v-802h-250l-17 125q-44 -71 -106.5 -108.5t-141.5 -37.5q-145 0 -226.5 109.5t-81.5 339.5v654h284v-656q0 -115 28 -167t83 -52q47 0 82.5 17.5t60.5 51.5v806h285v-105l6 -1q41 15 59.5 67.5t18.5 142.5h179z" />
<glyph unicode="&#x1f0;" horiz-adv-x="528" d="M411 1082v-1115q0 -194 -90 -299t-250 -105q-35 0 -64 4.5t-64 13.5l13 222q21 -6 39 -9t42 -3q43 0 66.5 45.5t23.5 130.5v1115h284zM249 1397l88 127h256v-17l-248 -253h-192l-248 255v15h256z" />
<glyph unicode="&#x1fa;" horiz-adv-x="1134" d="M765 309h-384l-78 -309h-287l410 1456h296l409 -1456h-287zM439 538h268l-131 515h-6zM656 2148h243l2 -6l-237 -212h-176zM392 1695q0 78 52.5 131.5t130.5 53.5q75 0 127 -53.5t52 -131.5q0 -79 -52 -130t-127 -51q-78 0 -130.5 51t-52.5 130zM497 1695q0 -39 22 -63.5 t56 -24.5q32 0 52.5 24.5t20.5 63.5q0 40 -20.5 66t-52.5 26q-34 0 -56 -26t-22 -66z" />
<glyph unicode="&#x1fb;" horiz-adv-x="944" d="M619 0q-12 27 -21.5 59t-14.5 65q-40 -66 -97.5 -105.5t-133.5 -39.5q-134 0 -214.5 88t-80.5 235q0 159 102.5 247t304.5 88h107v88q0 79 -28.5 121.5t-85.5 42.5q-48 0 -72 -34t-24 -99l-275 1l-3 6q-5 141 104.5 240t288.5 99q169 0 274.5 -98.5t105.5 -280.5v-438 q0 -80 11 -149t34 -136h-282zM434 193q43 0 79.5 23t57.5 59v199h-107q-65 0 -94 -45t-29 -114q0 -54 25 -88t68 -34zM549 1826h243l2 -6l-237 -212h-176zM285 1373q0 78 52.5 131.5t130.5 53.5q75 0 127 -53.5t52 -131.5q0 -79 -52 -130t-127 -51q-78 0 -130.5 51 t-52.5 130zM390 1373q0 -39 22 -63.5t56 -24.5q32 0 52.5 24.5t20.5 63.5q0 40 -20.5 66t-52.5 26q-34 0 -56 -26t-22 -66z" />
<glyph unicode="&#x1fc;" horiz-adv-x="1656" d="M1591 0h-774l-12 339h-329l-136 -339h-331l639 1456h891v-231h-481l12 -363h400v-230h-392l15 -402h498v-230zM573 578h224l-17 497l-6 1zM826 1826h299l3 -6l-249 -260h-229z" />
<glyph unicode="&#x1fd;" horiz-adv-x="1479" d="M1057 -21q-108 0 -192 38t-142 110q-52 -65 -135.5 -106.5t-196.5 -41.5q-168 0 -259 90.5t-91 247.5q0 159 110.5 245.5t322.5 86.5h136v56q0 79 -30 124t-83 45q-57 0 -89.5 -37t-32.5 -92l-275 17l-2 6q-5 145 106.5 239.5t295.5 94.5q83 0 153 -23.5t121 -68.5 q51 44 118 68t149 24q181 0 285 -131t104 -356v-160h-535q5 -117 51.5 -183t144.5 -66q77 0 127.5 18.5t115.5 59.5l71 -183q-53 -49 -147.5 -85.5t-200.5 -36.5zM446 184q41 0 88 27t76 65v190h-134q-71 0 -111.5 -44.5t-40.5 -108.5q0 -61 30 -95t92 -34zM1041 874 q-73 0 -106 -60t-39 -170h257v27q0 94 -28 148.5t-84 54.5zM770 1505h299l3 -6l-249 -260h-229z" />
<glyph unicode="&#x1fe;" horiz-adv-x="1215" d="M1097 523q0 -256 -139 -400t-370 -144q-63 0 -120.5 11t-107.5 34l-57 -117h-127l86 176q-87 70 -134 181.5t-47 258.5v408q0 255 138 400.5t368 145.5q90 0 168.5 -24t141.5 -69l65 132h129l-106 -216q54 -71 83 -164t29 -205v-408zM363 523q0 -54 6 -97.5t19 -70.5 l6 -1l382 781q-28 56 -75.5 84.5t-113.5 28.5q-112 0 -168 -79t-56 -236v-410zM814 933v4l-6 1l-342 -697q24 -18 54.5 -26t67.5 -8q110 0 168 79t58 237v410zM646 1888h299l3 -6l-249 -260h-229z" />
<glyph unicode="&#x1ff;" horiz-adv-x="997" d="M58 607q0 218 115.5 356.5t323.5 138.5q40 0 78 -6t73 -17l57 138h152l-85 -206q80 -66 122.5 -170.5t42.5 -233.5v-134q0 -220 -116 -357t-323 -137q-40 0 -75.5 5.5t-68.5 14.5l-58 -142h-151l85 206q-85 64 -128.5 170t-43.5 240v134zM341 473q0 -35 1.5 -62t6.5 -43 l6 -1l203 494q-14 6 -29.5 9.5t-31.5 3.5q-85 0 -120.5 -73t-35.5 -194v-134zM653 607q0 27 -2 49.5t-4 36.5l-6 1l-197 -479q12 -5 25 -7t29 -2q84 0 119.5 71.5t35.5 195.5v134zM499 1499h299l3 -6l-249 -260h-229z" />
<glyph unicode="&#x218;" horiz-adv-x="1109" d="M757 380q0 85 -44 134.5t-155 97.5q-227 79 -340.5 179.5t-113.5 281.5q0 179 132 291.5t337 112.5q208 0 338 -125.5t126 -316.5l-2 -6h-276q0 100 -50 162t-141 62q-85 0 -132.5 -51.5t-47.5 -129.5q0 -72 53 -118.5t184 -103.5q207 -70 311.5 -177.5t104.5 -290.5 q0 -189 -126 -296t-335 -107q-208 0 -360.5 121.5t-147.5 348.5l2 6h277q0 -135 57 -194t172 -59q90 0 133.5 48t43.5 130zM659 -258l-119 -231h-114l53 240v152h180v-161z" />
<glyph unicode="&#x219;" horiz-adv-x="888" d="M563 283q0 46 -36 79.5t-138 82.5q-163 61 -244.5 138t-81.5 200q0 132 104.5 225.5t276.5 93.5q180 0 287 -96t103 -245l-3 -6h-274q0 68 -28 108t-86 40q-46 0 -78 -31t-32 -75q0 -48 32 -77.5t139 -80.5q170 -58 252 -137.5t82 -208.5q0 -138 -110 -226t-289 -88 q-187 0 -296 109t-104 246l2 6h260q2 -86 40 -124t105 -38q57 0 87 28t30 77zM532 -258l-119 -231h-114l53 240v152h180v-161z" />
<glyph unicode="&#x21a;" horiz-adv-x="994" d="M967 1228h-328v-1228h-284v1228h-326v228h938v-228zM609 16l-9 -59q51 -11 86.5 -52.5t35.5 -120.5q0 -108 -80.5 -172.5t-227.5 -64.5l-6 163q34 0 53.5 20.5t19.5 63.5q0 42 -25.5 59t-86.5 22l27 141h213z" />
<glyph unicode="&#x21b;" horiz-adv-x="648" d="M430 1351v-269h150v-206h-150v-543q0 -66 19 -94.5t52 -28.5q26 0 44 2.5t40 8.5l22 -216q-45 -14 -86 -20t-93 -6q-137 0 -209.5 84.5t-72.5 268.5v544h-128v206h128v269h284zM485 7l-9 -59q51 -11 86.5 -52.5t35.5 -120.5q0 -108 -80.5 -172.5t-227.5 -64.5l-6 163 q34 0 53.5 20.5t19.5 63.5q0 42 -25.5 59t-86.5 22l27 141h213z" />
<glyph unicode="&#x237;" horiz-adv-x="528" d="M411 1082v-1115q0 -194 -90 -299t-250 -105q-35 0 -64 4.5t-64 13.5l13 222q21 -6 39 -9t42 -3q43 0 66.5 45.5t23.5 130.5v1115h284z" />
<glyph unicode="&#x259;" horiz-adv-x="938" d="M442 1103q204 0 324.5 -149.5t120.5 -378.5v-41q0 -245 -112 -399.5t-309 -153.5q-191 0 -294 129.5t-103 355.5v161h531q-10 111 -58 180t-134 69q-81 0 -131 -18.5t-118 -59.5l-73 181q56 52 150 88t206 36zM466 207q60 0 91.5 61t40.5 169h-251v-27q0 -97 28 -150 t91 -53z" />
<glyph unicode="&#x2bc;" horiz-adv-x="366" d="M332 1368l-146 -344h-137l49 344v192h234v-192z" />
<glyph unicode="&#x2c6;" horiz-adv-x="902" d="M783 1274v-22h-222l-114 134l-112 -134h-217v25l250 237h159z" />
<glyph unicode="&#x2c7;" horiz-adv-x="858" d="M426 1395l88 127h256v-17l-248 -253h-192l-248 255v15h256z" />
<glyph unicode="&#x2d8;" horiz-adv-x="829" d="M723 1456l2 -6q4 -129 -81.5 -209.5t-229.5 -80.5q-146 0 -232 81t-81 209l2 6h207q0 -53 25.5 -87t78.5 -34q51 0 75.5 34t24.5 87h209z" />
<glyph unicode="&#x2d9;" horiz-adv-x="579" d="M419 1229h-291v241h291v-241z" />
<glyph unicode="&#x2da;" horiz-adv-x="617" d="M117 1299q0 80 56 135t138 55q80 0 135 -55t55 -135q0 -82 -54.5 -134t-135.5 -52q-82 0 -138 52.5t-56 133.5zM225 1299q0 -42 24 -68.5t62 -26.5q37 0 60 26t23 69t-23 70t-60 27q-38 0 -62 -27t-24 -70z" />
<glyph unicode="&#x2db;" horiz-adv-x="561" d="M362 0q-40 -53 -58 -89t-18 -85q0 -23 13 -44.5t57 -21.5q23 0 40 5.5t37 14.5l32 -151q-31 -18 -70.5 -31t-92.5 -13q-98 0 -161.5 54.5t-63.5 152.5q0 76 37.5 144t118.5 120z" />
<glyph unicode="&#x2dc;" horiz-adv-x="867" d="M763 1481q0 -95 -51 -161.5t-130 -66.5q-59 0 -136.5 44t-121.5 44q-27 0 -46 -33t-19 -79l-149 43q0 93 51.5 161t129.5 68q46 0 129.5 -44t128.5 -44q27 0 46.5 32.5t19.5 80.5z" />
<glyph unicode="&#x2dd;" horiz-adv-x="782" d="M645 1518h264l2 -5l-238 -261h-230zM297 1518h268l-207 -266h-227z" />
<glyph unicode="&#x2f3;" horiz-adv-x="578" d="M135 -226q0 71 47 118t117 47q68 0 114.5 -47t46.5 -118q0 -70 -46.5 -116t-114.5 -46q-70 0 -117 46.5t-47 115.5zM240 -226q0 -29 16.5 -48.5t42.5 -19.5q24 0 39.5 19t15.5 49q0 32 -15.5 51.5t-39.5 19.5q-26 0 -42.5 -19.5t-16.5 -51.5z" />
<glyph unicode="&#x300;" horiz-adv-x="16" d="M-334 1195h-167l-165 303h218z" />
<glyph unicode="&#x301;" horiz-adv-x="16" d="M-573 1505h219l-167 -303h-166z" />
<glyph unicode="&#x303;" horiz-adv-x="17" d="M-138 1481q0 -95 -51 -161.5t-130 -66.5q-59 0 -136.5 44t-121.5 44q-27 0 -46 -33t-19 -79l-149 43q0 93 51.5 161t129.5 68q46 0 129.5 -44t128.5 -44q27 0 46.5 32.5t19.5 80.5z" />
<glyph unicode="&#x309;" horiz-adv-x="16" d="M-620 1266l-17 129q60 3 85.5 19t25.5 50q0 39 -27.5 55t-81.5 16l6 131q169 0 256.5 -51t87.5 -142q0 -64 -35.5 -100t-86.5 -44v-63h-213z" />
<glyph unicode="&#x30f;" horiz-adv-x="16" d="M-415 1252h-229l-238 261l2 5h263zM-103 1252h-227l-206 266h267z" />
<glyph unicode="&#x323;" horiz-adv-x="16" d="M-341 -353h-316v241h316v-241z" />
<glyph unicode="&#x384;" horiz-adv-x="646" d="M286 1623h262l-189 -350h-138z" />
<glyph unicode="&#x385;" horiz-adv-x="998" d="M846 1259h-234v197h234v-197zM370 1259h-235v197h235v-197zM456 1755h262l-162 -275h-135z" />
<glyph unicode="&#x386;" horiz-adv-x="1134" d="M765 309h-384l-78 -309h-287l410 1456h296l409 -1456h-287zM439 538h268l-131 515h-6zM139 1623h262l-189 -350h-138z" />
<glyph unicode="&#x387;" horiz-adv-x="567" d="M418 560h-278v262h278v-262z" />
<glyph unicode="&#x388;" horiz-adv-x="1108" d="M984 639h-489v-412h575v-227h-860v1456h858v-228h-573v-362h489v-227zM-57 1625h262l-189 -350h-138z" />
<glyph unicode="&#x389;" horiz-adv-x="1341" d="M1231 0h-284v603h-452v-603h-285v1456h285v-626h452v626h284v-1456zM-21 1622h262l-189 -350h-138z" />
<glyph unicode="&#x38a;" horiz-adv-x="634" d="M508 0h-283v1456h283v-1456zM-14 1624h262l-189 -350h-138z" />
<glyph unicode="&#x38c;" horiz-adv-x="1186" d="M1111 523q0 -256 -139 -400t-370 -144t-369 144t-138 400v408q0 255 138 400.5t368 145.5t370 -145.5t140 -400.5v-408zM828 933q0 156 -58 235.5t-169 79.5q-112 0 -168 -79t-56 -236v-410q0 -158 57 -237t168 -79q110 0 168 79t58 237v410zM42 1623h262l-189 -350h-138 z" />
<glyph unicode="&#x38e;" horiz-adv-x="1224" d="M658 832h6l243 624h309l-416 -938v-518h-284v536l-409 920h311zM-91 1623h262l-189 -350h-138z" />
<glyph unicode="&#x38f;" horiz-adv-x="1207" d="M647 235q66 38 101.5 167t35.5 370v90q0 185 -47 283.5t-129 94.5h-6q-81 4 -127 -94.5t-46 -283.5v-90q0 -243 35.5 -371.5t105.5 -165.5v-235h-434v230h216q-108 89 -174 231.5t-66 310.5v88q0 272 136.5 444.5t356.5 172.5q219 0 357.5 -172.5t138.5 -444.5v-88 q0 -168 -67 -310t-174 -232h223v-230h-436v235zM29 1623h262l-189 -350h-138z" />
<glyph unicode="&#x390;" horiz-adv-x="605" d="M396 1081v-751q0 -69 15.5 -96t51.5 -27q25 0 35 2t47 13l26 -215q-44 -16 -80.5 -22t-85.5 -6q-141 0 -217 87.5t-76 265.5v749h284zM613 1197h-234v197h234v-197zM137 1197h-235v197h235v-197zM223 1693h262l-162 -275h-135z" />
<glyph unicode="&#x391;" horiz-adv-x="1134" d="M765 309h-384l-78 -309h-287l410 1456h296l409 -1456h-287zM439 538h268l-131 515h-6z" />
<glyph unicode="&#x392;" horiz-adv-x="1136" d="M110 0v1456h429q225 0 351.5 -100t126.5 -298q0 -104 -46 -184.5t-138 -120.5q115 -27 170 -117t55 -211q0 -209 -119.5 -317t-342.5 -108h-486zM395 642v-415h201q90 0 134.5 50t44.5 149q0 104 -38 160t-122 56h-220zM395 841h157q87 2 133.5 50.5t46.5 139.5 q0 102 -48 149.5t-145 47.5h-144v-387z" />
<glyph unicode="&#x393;" horiz-adv-x="983" d="M931 1228h-535v-1228h-285v1456h820v-228z" />
<glyph unicode="&#x394;" horiz-adv-x="1295" d="M507 1456h295l480 -1456h-1260zM391 227h522l-256 824h-6z" />
<glyph unicode="&#x395;" horiz-adv-x="1008" d="M884 639h-489v-412h575v-227h-860v1456h858v-228h-573v-362h489v-227z" />
<glyph unicode="&#x396;" horiz-adv-x="998" d="M386 227h559v-227h-879v143l546 1086h-552v227h876v-138z" />
<glyph unicode="&#x397;" horiz-adv-x="1241" d="M1131 0h-284v603h-452v-603h-285v1456h285v-626h452v626h284v-1456z" />
<glyph unicode="&#x398;" horiz-adv-x="1215" d="M723 609h-281v226h281v-226zM1088 523q0 -256 -139 -400t-370 -144t-369 144t-138 400v408q0 255 138 400.5t368 145.5t370 -145.5t140 -400.5v-408zM805 933q0 156 -58 235.5t-169 79.5q-112 0 -168 -79t-56 -236v-410q0 -158 57 -237t168 -79q110 0 168 79t58 237v410z " />
<glyph unicode="&#x399;" horiz-adv-x="534" d="M408 0h-283v1456h283v-1456z" />
<glyph unicode="&#x39a;" horiz-adv-x="1137" d="M519 605h-124v-605h-285v1456h285v-592h92l284 592h349l-397 -665l430 -791h-346z" />
<glyph unicode="&#x39b;" horiz-adv-x="1138" d="M311 0h-297l406 1456h296l408 -1456h-298l-253 1122l-1 6h-6l-1 -5z" />
<glyph unicode="&#x39c;" horiz-adv-x="1481" d="M474 1456l261 -1069h6l264 1069h371v-1456h-283v423l24 566l-6 1l-278 -990h-189l-275 982l-6 -1l25 -558v-423h-283v1456h369z" />
<glyph unicode="&#x39d;" horiz-adv-x="1241" d="M1129 0h-283l-445 931l-6 -2v-929h-285v1456h285l445 -930l6 2v928h283v-1456z" />
<glyph unicode="&#x39e;" horiz-adv-x="1002" d="M85 227h844v-227h-844v227zM185 844h646v-218h-646v218zM108 1456h782v-227h-782v227z" />
<glyph unicode="&#x39f;" horiz-adv-x="1166" d="M1091 523q0 -256 -139 -400t-370 -144t-369 144t-138 400v408q0 255 138 400.5t368 145.5t370 -145.5t140 -400.5v-408zM808 933q0 156 -58 235.5t-169 79.5q-112 0 -168 -79t-56 -236v-410q0 -158 57 -237t168 -79q110 0 168 79t58 237v410z" />
<glyph unicode="&#x3a0;" horiz-adv-x="1241" d="M1132 0h-284v1228h-453v-1228h-285v1456h1022v-1456z" />
<glyph unicode="&#x3a1;" horiz-adv-x="1158" d="M395 522v-522h-285v1456h506q218 0 344 -129t126 -338q0 -210 -126.5 -338.5t-343.5 -128.5h-221zM395 750h221q91 0 139 67t48 170q0 104 -47.5 172.5t-139.5 68.5h-221v-478z" />
<glyph unicode="&#x3a3;" horiz-adv-x="1002" d="M731 730l-301 -503h519v-227h-879v144l359 595l-359 574v143h863v-227h-499l297 -481v-18z" />
<glyph unicode="&#x3a4;" horiz-adv-x="994" d="M967 1228h-328v-1228h-284v1228h-326v228h938v-228z" />
<glyph unicode="&#x3a5;" horiz-adv-x="1124" d="M558 832h6l243 624h309l-416 -938v-518h-284v536l-409 920h311z" />
<glyph unicode="&#x3a6;" horiz-adv-x="1369" d="M833 1285q212 -10 345 -164.5t133 -399.5q0 -241 -133 -392t-345 -160v-169h-283v169q-215 8 -348.5 158t-133.5 392q0 247 133.5 402t348.5 164v171h283v-171zM346 719q0 -139 54 -217t144 -80l6 1v606l-6 2q-90 -3 -144 -85t-54 -227zM1032 721q0 144 -52.5 225 t-140.5 85l-6 -2v-605l6 -2q87 3 140 82t53 217z" />
<glyph unicode="&#x3a7;" horiz-adv-x="1127" d="M558 947h6l198 509h329l-353 -722l377 -734h-343l-204 520h-6l-204 -520h-331l362 734l-353 722h327z" />
<glyph unicode="&#x3a8;" horiz-adv-x="1286" d="M789 599l6 -1q81 14 121.5 102.5t40.5 248.5v507h285v-507q0 -259 -121.5 -414t-331.5 -182v-353h-284v351q-217 22 -341 178t-124 420v507h284v-507q0 -153 45.5 -242.5t129.5 -107.5l6 1v856h284v-857z" />
<glyph unicode="&#x3a9;" horiz-adv-x="1187" d="M627 235q66 38 101.5 167t35.5 370v90q0 185 -47 283.5t-129 94.5h-6q-81 4 -127 -94.5t-46 -283.5v-90q0 -243 35.5 -371.5t105.5 -165.5v-235h-434v230h216q-108 89 -174 231.5t-66 310.5v88q0 272 136.5 444.5t356.5 172.5q219 0 357.5 -172.5t138.5 -444.5v-88 q0 -168 -67 -310t-174 -232h223v-230h-436v235z" />
<glyph unicode="&#x3aa;" horiz-adv-x="534" d="M408 0h-283v1456h283v-1456zM619 1606h-250v198h250v-198zM171 1606h-251v198h251v-198z" />
<glyph unicode="&#x3ab;" horiz-adv-x="1124" d="M558 832h6l243 624h309l-416 -938v-518h-284v536l-409 920h311zM919 1605h-250v198h250v-198zM471 1605h-251v198h251v-198z" />
<glyph unicode="&#x3ac;" horiz-adv-x="992" d="M892 1081v-733q0 -77 12.5 -107.5t41.5 -30.5q4 0 7 0.5t5 3.5l22 -212q-28 -13 -53 -18t-58 -5q-81 0 -138.5 38t-88.5 115q-39 -75 -94 -114t-129 -39q-171 0 -264.5 146.5t-93.5 388.5v21q0 255 93.5 411t265.5 156q66 0 117 -34t89 -97l18 110h248zM346 514 q0 -146 33 -227t113 -81q40 0 69 18t49 54q-2 16 -2.5 33.5t-0.5 36.5v448q-20 37 -48 57.5t-65 20.5q-79 0 -113.5 -92.5t-34.5 -246.5v-21zM487 1560h262l-189 -350h-138z" />
<glyph unicode="&#x3ad;" horiz-adv-x="988" d="M85 304q0 91 46 155.5t132 96.5q-76 36 -119 97t-43 134q0 149 116 231t308 82q167 0 279.5 -88.5t107.5 -233.5l-2 -6h-276q0 55 -34.5 86t-90.5 31q-63 0 -93.5 -37t-30.5 -88q0 -55 33.5 -86.5t93.5 -31.5h156v-186h-156q-67 0 -105 -32.5t-38 -100.5 q0 -57 35.5 -96.5t103.5 -39.5q69 0 105.5 35.5t36.5 91.5h275l2 -6q4 -160 -116.5 -245.5t-285.5 -85.5q-192 0 -316 86.5t-124 236.5zM468 1559h262l-189 -350h-138z" />
<glyph unicode="&#x3ae;" d="M352 1082l12 -148q44 79 109.5 123.5t144.5 44.5q136 0 213 -106.5t77 -339.5v-1071h-285v1071q0 120 -28 169t-85 49q-44 0 -79 -20.5t-60 -57.5v-796h-284v1082h265zM452 1560h262l-189 -350h-138z" />
<glyph unicode="&#x3af;" horiz-adv-x="605" d="M396 1081v-751q0 -69 15.5 -96t51.5 -27q25 0 35 2t47 13l26 -215q-44 -16 -80.5 -22t-85.5 -6q-141 0 -217 87.5t-76 265.5v749h284zM226 1538h262l-189 -350h-138z" />
<glyph unicode="&#x3b0;" d="M378 1082v-611q0 -141 35.5 -202.5t91.5 -55.5h6q74 -5 108 96t34 252q-3 129 -24 259.5t-58 261.5h267q44 -105 71 -235t27 -286q0 -269 -97.5 -425.5t-321.5 -156.5q-199 0 -311 122t-112 372v609h284zM862 1198h-234v197h234v-197zM386 1198h-235v197h235v-197z M472 1694h262l-162 -275h-135z" />
<glyph unicode="&#x3b1;" horiz-adv-x="992" d="M892 1081v-733q0 -77 12.5 -107.5t41.5 -30.5q4 0 7 0.5t5 3.5l22 -212q-28 -13 -53 -18t-58 -5q-81 0 -138.5 38t-88.5 115q-39 -75 -94 -114t-129 -39q-171 0 -264.5 146.5t-93.5 388.5v21q0 255 93.5 411t265.5 156q66 0 117 -34t89 -97l18 110h248zM346 514 q0 -146 33 -227t113 -81q40 0 69 18t49 54q-2 16 -2.5 33.5t-0.5 36.5v448q-20 37 -48 57.5t-65 20.5q-79 0 -113.5 -92.5t-34.5 -246.5v-21z" />
<glyph unicode="&#x3b2;" horiz-adv-x="1064" d="M546 1477q188 0 299 -104.5t111 -289.5q0 -101 -45.5 -184.5t-124.5 -131.5q105 -43 162.5 -135.5t57.5 -222.5q0 -205 -100 -317.5t-276 -112.5q-59 0 -118 16.5t-109 49.5v-454h-283v1439q0 198 123 322.5t303 124.5zM543 853q67 0 98.5 53t31.5 155q0 78 -33.5 133 t-93.5 55q-64 0 -103.5 -60t-39.5 -159v-777q29 -23 69 -35t89 -12q73 0 116.5 58t43.5 150q0 112 -40.5 172.5t-116.5 60.5h-71v206h50z" />
<glyph unicode="&#x3b3;" horiz-adv-x="909" d="M597 1082h297l-299 -1079v-419h-284v434l-296 1064h297l127 -674l13 -82h6l14 82z" />
<glyph unicode="&#x3b4;" d="M846 1456v-227h-308q155 -137 277 -312.5t122 -365.5v-22q0 -245 -115.5 -397.5t-323.5 -152.5q-209 0 -324.5 144t-115.5 376v22q0 198 90.5 335.5t229.5 164.5q-49 66 -106 131t-116 120v184h690zM341 529q0 -150 35 -236t119 -81h6q82 -5 117 81.5t35 235.5v22 q0 111 -36 193.5t-92 121.5q-9 4 -15 6t-13 2q-85 0 -120.5 -88.5t-35.5 -234.5v-22zM379 1021h-1h1t0 0z" />
<glyph unicode="&#x3b5;" horiz-adv-x="988" d="M85 304q0 91 46 155.5t132 96.5q-76 36 -119 97t-43 134q0 149 116 231t308 82q167 0 279.5 -88.5t107.5 -233.5l-2 -6h-276q0 55 -34.5 86t-90.5 31q-63 0 -93.5 -37t-30.5 -88q0 -55 33.5 -86.5t93.5 -31.5h156v-186h-156q-67 0 -105 -32.5t-38 -100.5 q0 -57 35.5 -96.5t103.5 -39.5q69 0 105.5 35.5t36.5 91.5h275l2 -6q4 -160 -116.5 -245.5t-285.5 -85.5q-192 0 -316 86.5t-124 236.5z" />
<glyph unicode="&#x3b6;" horiz-adv-x="891" d="M834 1456v-157l-299 -444q-88 -134 -125 -224.5t-37 -207.5q0 -99 37 -150t116 -51h43q126 0 200.5 -73t74.5 -203q-1 -127 -79.5 -228t-217.5 -141l-93 196q53 26 85 61t32 86q0 39 -25 59.5t-83 20.5h-36q-164 0 -250.5 110t-86.5 268q0 155 55.5 287t175.5 309 l177 256h-430v226h766z" />
<glyph unicode="&#x3b7;" d="M352 1082l12 -148q44 79 109.5 123.5t144.5 44.5q136 0 213 -106.5t77 -339.5v-1071h-285v1071q0 120 -28 169t-85 49q-44 0 -79 -20.5t-60 -57.5v-796h-284v1082h265z" />
<glyph unicode="&#x3b8;" horiz-adv-x="1049" d="M950 571q0 -291 -115.5 -441.5t-309.5 -150.5q-196 0 -312 150.5t-116 441.5v313q0 290 115.5 441.5t310.5 151.5t311 -151.5t116 -441.5v-313zM666 623h-285v-75q0 -178 37 -259.5t104 -75.5h6q66 -6 102 75t36 260v75zM381 841h285v68q0 176 -37 257t-103 76h-6 q-67 5 -103 -76t-36 -257v-68z" />
<glyph unicode="&#x3b9;" horiz-adv-x="605" d="M396 1081v-751q0 -69 15.5 -96t51.5 -27q25 0 35 2t47 13l26 -215q-44 -16 -80.5 -22t-85.5 -6q-141 0 -217 87.5t-76 265.5v749h284z" />
<glyph unicode="&#x3ba;" horiz-adv-x="1062" d="M481 402h-88v-402h-284v1082h284v-409h66l199 409h361l-311 -493l2 1l315 -590h-364z" />
<glyph unicode="&#x3bb;" horiz-adv-x="937" d="M312 0h-304l312 1066l-46 107q-18 52 -51.5 84.5t-75.5 32.5q-10 0 -27.5 -2t-28.5 -4l-5 211q45 12 71.5 17.5t61.5 5.5q143 0 213.5 -79t109.5 -194l308 -895q13 -52 36.5 -87t56.5 -43q8 -3 19 -3.5t23 0.5l-21 -220q-32 -6 -64 -8t-64 1q-113 10 -178 106.5 t-103 223.5l-101 341h-6l-5 -27z" />
<glyph unicode="&#x3bc;" horiz-adv-x="1113" d="M405 1082v-637q1 -137 33.5 -186.5t100.5 -49.5q52 0 88.5 24t59.5 70v779h284v-1082h-267l-4 51q-35 -36 -78 -54t-93 -18q-36 0 -67 9t-57 26v-430h-285v1498h285z" />
<glyph unicode="&#x3bd;" horiz-adv-x="909" d="M439 408l13 -82h6l14 82l125 674h297l-300 -1082h-278l-301 1082h297z" />
<glyph unicode="&#x3be;" horiz-adv-x="958" d="M854 1456v-235h-232q-85 0 -126 -40.5t-41 -112.5q0 -75 38 -118t119 -43h132v-236h-123q-123 0 -183.5 -63t-60.5 -188q0 -93 42.5 -149t118.5 -56h120q130 0 206.5 -70t76.5 -204q-2 -145 -76.5 -241t-222.5 -142l-75 171q46 25 80.5 61.5t34.5 93.5q0 46 -24 71.5 t-75 25.5h-62q-199 0 -314 116.5t-115 326.5q0 133 64.5 225t189.5 138q-85 33 -130 91.5t-45 139.5q0 69 32 120t94 83h-180v235h737z" />
<glyph unicode="&#x3bf;" d="M58 607q0 218 115.5 356.5t323.5 138.5t324 -138.5t116 -356.5v-134q0 -220 -116 -357t-323 -137q-209 0 -324.5 137t-115.5 357v134zM341 473q0 -125 35 -196t122 -71q84 0 119.5 71.5t35.5 195.5v134q0 122 -35.5 194.5t-120.5 72.5t-120.5 -73t-35.5 -194v-134z" />
<glyph unicode="&#x3c0;" horiz-adv-x="1167" d="M1070 868h-132v-537q0 -69 15.5 -96t51.5 -27q25 0 35 2t47 13l26 -215q-44 -16 -80.5 -22t-85.5 -6q-141 0 -217 87.5t-76 265.5v535h-165v-868h-284v868h-131v214h996v-214z" />
<glyph unicode="&#x3c1;" d="M939 514q0 -242 -93.5 -388.5t-262.5 -146.5q-66 0 -117.5 26t-89.5 77v-498h-284v997h2l-2 1q0 232 115 376t318 144q198 0 306 -155.5t108 -411.5v-21zM655 535q0 153 -34.5 244.5t-108.5 87.5h-6q-65 4 -97.5 -84t-32.5 -229l-1 -1h1v-276q20 -35 52.5 -53t79.5 -18 q79 0 113 81.5t34 226.5v21z" />
<glyph unicode="&#x3c2;" horiz-adv-x="895" d="M481 1102q175 0 278 -111.5t100 -306.5l-2 -5h-259q0 89 -28 142t-89 53q-83 0 -115 -87t-32 -233v-28q0 -141 48 -213.5t160 -92.5q166 -29 243 -94.5t77 -198.5q-3 -127 -81 -227.5t-216 -139.5l-92 196q52 27 83.5 61.5t31.5 84.5q0 41 -30.5 64t-92.5 36 q-212 34 -314 165.5t-102 358.5v28q0 241 112 394.5t320 153.5z" />
<glyph unicode="&#x3c3;" horiz-adv-x="1013" d="M984 854h-217q67 -66 109.5 -154.5t42.5 -185.5v-23q0 -226 -111.5 -369t-311.5 -143q-209 0 -324 152.5t-115 397.5v22q0 236 115 383.5t323 147.5q0 -1 1 -1l488 1v-228zM340 529q0 -150 34.5 -235.5t118.5 -80.5h6q73 -5 104.5 81t31.5 235v22q0 137 -32 220t-107 83 q-85 0 -120.5 -83.5t-35.5 -219.5v-22z" />
<glyph unicode="&#x3c4;" horiz-adv-x="931" d="M893 856h-284v-856h-284v856h-281v226h849v-226z" />
<glyph unicode="&#x3c5;" d="M378 1082v-611q0 -141 35.5 -202.5t91.5 -55.5h6q74 -5 108 96t34 252q-3 129 -24 259.5t-58 261.5h267q44 -105 71 -235t27 -286q0 -269 -97.5 -425.5t-321.5 -156.5q-199 0 -311 122t-112 372v609h284z" />
<glyph unicode="&#x3c6;" horiz-adv-x="1337" d="M802 1082q236 0 358 -164t122 -379q0 -219 -113.5 -369t-366.5 -182v-466h-284v468q-252 39 -365 203t-113 402q0 146 29.5 268t79.5 219h257q-37 -127 -58.5 -247.5t-22.5 -239.5q0 -141 43.5 -233.5t143.5 -121.5l6 1v841h284zM802 233l6 -2q102 24 146 104t44 204 q-2 140 -50.5 226t-139.5 80l-6 -2v-610z" />
<glyph unicode="&#x3c7;" horiz-adv-x="941" d="M164 1098q137 0 204 -79.5t102 -192.5l36 -101h6l145 357h287l-302 -735l149 -415q12 -50 36 -85t56 -44q9 -2 19.5 -2.5t23.5 -0.5l-13 -221q-31 -7 -66.5 -9t-69.5 1q-99 11 -159.5 108t-95.5 223l-27 75h-6l-161 -392h-278l311 768l-142 401q-16 54 -56 84.5t-87 30.5 q-10 0 -28 -2t-27 -4l-6 212q51 12 80.5 17.5t68.5 5.5z" />
<glyph unicode="&#x3c8;" horiz-adv-x="1336" d="M801 1081v-840l6 -1q98 30 143.5 124t45.5 234q-2 116 -24 235.5t-60 248.5h258q50 -98 80.5 -218.5t30.5 -265.5q0 -243 -114 -409t-366 -201v-461h-284v464q-222 35 -342.5 181.5t-120.5 415.5v494h285v-496q0 -149 46 -234t126 -109l6 1v837h284z" />
<glyph unicode="&#x3c9;" horiz-adv-x="1507" d="M462 1082q-52 -128 -81.5 -259t-32.5 -262q0 -156 27.5 -254.5t94.5 -92.5l6 -1q55 -6 91 62.5t36 218.5v352h300v-352q0 -150 35.5 -218.5t91.5 -62.5l6 1q65 -6 93.5 92.5t28.5 254.5q-4 131 -33.5 261.5t-81.5 259.5h266q60 -105 96.5 -235t36.5 -286 q0 -271 -92 -426.5t-308 -155.5q-97 0 -171 52t-118 153q-45 -101 -119 -153t-170 -52q-216 0 -307.5 156t-91.5 426q0 156 35.5 286t95.5 235h266z" />
<glyph unicode="&#x3ca;" horiz-adv-x="605" d="M396 1081v-751q0 -69 15.5 -96t51.5 -27q25 0 35 2t47 13l26 -215q-44 -16 -80.5 -22t-85.5 -6q-141 0 -217 87.5t-76 265.5v749h284zM619 1262h-250v198h250v-198zM171 1262h-251v198h251v-198z" />
<glyph unicode="&#x3cb;" d="M378 1082v-611q0 -141 35.5 -202.5t91.5 -55.5h6q74 -5 108 96t34 252q-3 129 -24 259.5t-58 261.5h267q44 -105 71 -235t27 -286q0 -269 -97.5 -425.5t-321.5 -156.5q-199 0 -311 122t-112 372v609h284zM868 1263h-250v198h250v-198zM420 1263h-251v198h251v-198z" />
<glyph unicode="&#x3cc;" d="M58 607q0 218 115.5 356.5t323.5 138.5t324 -138.5t116 -356.5v-134q0 -220 -116 -357t-323 -137q-209 0 -324.5 137t-115.5 357v134zM341 473q0 -125 35 -196t122 -71q84 0 119.5 71.5t35.5 195.5v134q0 122 -35.5 194.5t-120.5 72.5t-120.5 -73t-35.5 -194v-134z M452 1560h262l-189 -350h-138z" />
<glyph unicode="&#x3cd;" d="M378 1082v-611q0 -141 35.5 -202.5t91.5 -55.5h6q74 -5 108 96t34 252q-3 129 -24 259.5t-58 261.5h267q44 -105 71 -235t27 -286q0 -269 -97.5 -425.5t-321.5 -156.5q-199 0 -311 122t-112 372v609h284zM475 1539h262l-189 -350h-138z" />
<glyph unicode="&#x3ce;" horiz-adv-x="1507" d="M462 1082q-52 -128 -81.5 -259t-32.5 -262q0 -156 27.5 -254.5t94.5 -92.5l6 -1q55 -6 91 62.5t36 218.5v352h300v-352q0 -150 35.5 -218.5t91.5 -62.5l6 1q65 -6 93.5 92.5t28.5 254.5q-4 131 -33.5 261.5t-81.5 259.5h266q60 -105 96.5 -235t36.5 -286 q0 -271 -92 -426.5t-308 -155.5q-97 0 -171 52t-118 153q-45 -101 -119 -153t-170 -52q-216 0 -307.5 156t-91.5 426q0 156 35.5 286t95.5 235h266zM711 1539h262l-189 -350h-138z" />
<glyph unicode="&#x3d1;" horiz-adv-x="1231" d="M636 215q97 0 152.5 85.5t56.5 238.5q-158 16 -265.5 133t-107.5 286v109q0 187 96 298.5t249 111.5q152 0 239.5 -109t87.5 -301v-523q0 -257 -139.5 -411t-368.5 -154q-235 0 -380.5 159.5t-145.5 405.5v708l301 2v-710q0 -147 60 -238t165 -91zM739 956q0 -78 27 -132 t73 -64l6 2v336q0 63 -11 94t-31 26h-6q-25 5 -41.5 -27t-16.5 -93v-142z" />
<glyph unicode="&#x3d2;" horiz-adv-x="1059" d="M659 1197q53 158 121 221.5t189 63.5q24 0 46 -4.5t41 -14.5l-22 -222q-2 1 -17 3t-23 2q-32 0 -53 -29.5t-32 -80.5l-243 -672v-464h-284v486l-234 650q-12 51 -33.5 80.5t-52.5 29.5q-9 0 -24 -2t-17 -3l-19 222q17 10 38.5 14.5t47.5 4.5q122 0 189 -60.5t120 -216.5 l117 -385l11 -67h6l12 67z" />
<glyph unicode="&#x3d6;" horiz-adv-x="1472" d="M1465 883h-109q22 -74 34 -154t12 -168q0 -270 -87 -426t-290 -156q-98 0 -171.5 52.5t-117.5 153.5q-45 -101 -118.5 -153.5t-170.5 -52.5q-203 0 -290 156t-87 426q0 88 11.5 168.5t33.5 153.5h-102v199h1452v-199zM1118 561q-3 81 -14.5 161.5t-32.5 160.5h-670 q-21 -80 -32.5 -161t-13.5 -161q0 -157 22 -255t78 -92h6q53 -7 89 61.5t36 218.5v202h301v-202q0 -150 35 -218.5t90 -61.5h6q54 -6 77 92t23 255z" />
<glyph unicode="&#x400;" horiz-adv-x="1008" d="M884 639h-489v-412h575v-227h-860v1456h858v-228h-573v-362h489v-227zM659 1559h-230l-246 260l3 6h298z" />
<glyph unicode="&#x401;" horiz-adv-x="1008" d="M884 639h-489v-412h575v-227h-860v1456h858v-228h-573v-362h489v-227zM863 1606h-250v198h250v-198zM415 1606h-251v198h251v-198z" />
<glyph unicode="&#x402;" horiz-adv-x="1313" d="M991 1228h-383v-364q52 14 98.5 22t91.5 8q215 0 339.5 -115t124.5 -339q0 -192 -114 -324t-362 -129l-6 3v206q124 0 160 63t38 166q0 109 -46.5 174.5t-133.5 65.5q-53 0 -98.5 -5t-91.5 -14v-646h-285v1228h-296v228h964v-228z" />
<glyph unicode="&#x403;" horiz-adv-x="983" d="M931 1228h-535v-1228h-285v1456h820v-228zM553 1826h299l3 -6l-249 -260h-229z" />
<glyph unicode="&#x404;" horiz-adv-x="1089" d="M1016 470l3 -6q2 -240 -114 -362t-342 -122t-361 138.5t-135 392.5v435q0 253 130.5 392.5t349.5 139.5q232 0 350.5 -124t122.5 -367l-3 -6h-274q6 143 -39 206t-157 63q-96 0 -147 -75t-51 -227v-104h360v-227h-360v-106q0 -154 54.5 -229t159.5 -75q103 0 143.5 59.5 t35.5 203.5h274z" />
<glyph unicode="&#x405;" horiz-adv-x="1109" d="M757 380q0 85 -44 134.5t-155 97.5q-227 79 -340.5 179.5t-113.5 281.5q0 179 132 291.5t337 112.5q208 0 338 -125.5t126 -316.5l-2 -6h-276q0 100 -50 162t-141 62q-85 0 -132.5 -51.5t-47.5 -129.5q0 -72 53 -118.5t184 -103.5q207 -70 311.5 -177.5t104.5 -290.5 q0 -189 -126 -296t-335 -107q-208 0 -360.5 121.5t-147.5 348.5l2 6h277q0 -135 57 -194t172 -59q90 0 133.5 48t43.5 130z" />
<glyph unicode="&#x406;" horiz-adv-x="534" d="M408 0h-283v1456h283v-1456z" />
<glyph unicode="&#x407;" horiz-adv-x="534" d="M408 0h-283v1456h283v-1456zM619 1606h-250v198h250v-198zM171 1606h-251v198h251v-198z" />
<glyph unicode="&#x408;" horiz-adv-x="1015" d="M623 1456h283v-1012q0 -214 -120.5 -339.5t-303.5 -125.5q-198 0 -313.5 112t-111.5 330l3 6h277q0 -115 40.5 -168t104.5 -53q58 0 99.5 63t41.5 175v1012z" />
<glyph unicode="&#x409;" horiz-adv-x="1843" d="M1130 1456v-507h185q216 0 346.5 -133t130.5 -341q0 -210 -130.5 -342.5t-346.5 -132.5h-468v1228h-287l2 -426q2 -428 -121 -615t-364 -187h-36v227h33q124 0 165.5 121.5t38.5 453.5l-4 654h856zM1130 722v-495h185q90 0 141.5 72.5t51.5 177.5q0 101 -51.5 173 t-141.5 72h-185z" />
<glyph unicode="&#x40a;" horiz-adv-x="1843" d="M395 836h452v620h284v-516h184q216 0 347 -131.5t131 -337.5q0 -208 -131 -339.5t-347 -131.5h-468v609h-452v-609h-284v1456h284v-620zM1131 713v-485h184q91 0 142.5 71t51.5 174q0 100 -51.5 170t-142.5 70h-184z" />
<glyph unicode="&#x40b;" horiz-adv-x="1341" d="M972 1228h-378v-320q44 6 86 10.5t71 4.5q232 0 362.5 -118.5t130.5 -361.5v-443h-283v443q0 142 -50 197.5t-160 55.5q-31 0 -73.5 -4t-83.5 -11v-681h-285v1228h-275v228h938v-228z" />
<glyph unicode="&#x40c;" horiz-adv-x="1137" d="M519 605h-124v-605h-285v1456h285v-592h92l284 592h349l-397 -665l430 -791h-346zM547 1826h299l3 -6l-249 -260h-229z" />
<glyph unicode="&#x40d;" horiz-adv-x="1226" d="M834 1456h284v-1456h-284v904l-6 1l-445 -905h-284v1456h284v-904l6 -1zM754 1559h-230l-246 260l3 6h298z" />
<glyph unicode="&#x40e;" horiz-adv-x="1111" d="M569 795l3 -14h6l209 675h297l-408 -1173q-59 -145 -134 -224.5t-212 -79.5q-20 0 -47 1.5t-43 2.5l-5 227q8 -2 29 -3t36 -1q66 0 98 35.5t51 109.5l14 49h-1l-430 1056h304zM865 1897l2 -6q4 -129 -81.5 -209.5t-229.5 -80.5q-146 0 -232 81t-81 209l2 6h207 q0 -53 25.5 -87t78.5 -34q51 0 75.5 34t24.5 87h209z" />
<glyph unicode="&#x40f;" horiz-adv-x="1228" d="M96 1456h283v-1229h454v1229h284v-1456h-356v-359h-284v359h-381v1456z" />
<glyph unicode="&#x410;" horiz-adv-x="1134" d="M765 309h-384l-78 -309h-287l410 1456h296l409 -1456h-287zM439 538h268l-131 515h-6z" />
<glyph unicode="&#x411;" horiz-adv-x="1101" d="M929 1228h-535v-308h183q219 0 349 -124.5t130 -330.5q0 -209 -130.5 -337t-348.5 -128h-468v1456h820v-228zM394 693v-466h183q92 0 143.5 68t51.5 172q0 99 -51.5 162.5t-143.5 63.5h-183z" />
<glyph unicode="&#x412;" horiz-adv-x="1136" d="M110 0v1456h429q225 0 351.5 -100t126.5 -298q0 -104 -46 -184.5t-138 -120.5q115 -27 170 -117t55 -211q0 -209 -119.5 -317t-342.5 -108h-486zM395 642v-415h201q90 0 134.5 50t44.5 149q0 104 -38 160t-122 56h-220zM395 841h157q87 2 133.5 50.5t46.5 139.5 q0 102 -48 149.5t-145 47.5h-144v-387z" />
<glyph unicode="&#x413;" horiz-adv-x="983" d="M931 1228h-535v-1228h-285v1456h820v-228z" />
<glyph unicode="&#x414;" horiz-adv-x="1321" d="M1270 -357h-258v357h-706v-357h-264l-20 584h95q64 58 109.5 204t53.5 439l37 586h832v-1229h148zM565 870q-8 -226 -45 -382t-97 -261h443v1001h-279z" />
<glyph unicode="&#x415;" horiz-adv-x="1008" d="M884 639h-489v-412h575v-227h-860v1456h858v-228h-573v-362h489v-227z" />
<glyph unicode="&#x416;" horiz-adv-x="1788" d="M1187 604h-139v-604h-284v604h-144l-245 -604h-354l377 798l-360 658h353l250 -594h123v594h284v-594h119l242 594h352l-352 -655l369 -801h-353z" />
<glyph unicode="&#x417;" horiz-adv-x="1092" d="M988 1062q0 -101 -51.5 -184t-141.5 -131q102 -42 157 -129t55 -212q0 -200 -133 -313.5t-347 -113.5q-189 0 -326.5 107t-132.5 312l2 6h276q0 -85 50.5 -141.5t130.5 -56.5q90 0 142.5 57t52.5 147q0 116 -45 169t-134 53h-152v221h152q82 0 121.5 53.5t39.5 151.5 q0 83 -45.5 137t-131.5 54q-72 0 -118 -51t-46 -135h-276l-2 6q-5 182 124.5 295t317.5 113q213 0 337 -108t124 -307z" />
<glyph unicode="&#x418;" horiz-adv-x="1226" d="M834 1456h284v-1456h-284v904l-6 1l-445 -905h-284v1456h284v-904l6 -1z" />
<glyph unicode="&#x419;" horiz-adv-x="1226" d="M834 1456h284v-1456h-284v904l-6 1l-445 -905h-284v1456h284v-904l6 -1zM919 1897l2 -6q4 -129 -81.5 -209.5t-229.5 -80.5q-146 0 -232 81t-81 209l2 6h207q0 -53 25.5 -87t78.5 -34q51 0 75.5 34t24.5 87h209z" />
<glyph unicode="&#x41a;" horiz-adv-x="1137" d="M519 605h-124v-605h-285v1456h285v-592h92l284 592h349l-397 -665l430 -791h-346z" />
<glyph unicode="&#x41b;" horiz-adv-x="1241" d="M1130 1456v-1456h-283v1228h-305l3 -426q2 -429 -106.5 -615.5t-327.5 -186.5h-68v227h34q114 11 150 127t34 448l-4 654h873z" />
<glyph unicode="&#x41c;" horiz-adv-x="1481" d="M474 1456l261 -1069h6l264 1069h371v-1456h-283v423l24 566l-6 1l-278 -990h-189l-275 982l-6 -1l25 -558v-423h-283v1456h369z" />
<glyph unicode="&#x41d;" horiz-adv-x="1241" d="M1131 0h-284v603h-452v-603h-285v1456h285v-626h452v626h284v-1456z" />
<glyph unicode="&#x41e;" horiz-adv-x="1166" d="M1091 523q0 -256 -139 -400t-370 -144t-369 144t-138 400v408q0 255 138 400.5t368 145.5t370 -145.5t140 -400.5v-408zM808 933q0 156 -58 235.5t-169 79.5q-112 0 -168 -79t-56 -236v-410q0 -158 57 -237t168 -79q110 0 168 79t58 237v410z" />
<glyph unicode="&#x41f;" horiz-adv-x="1241" d="M1132 0h-284v1228h-453v-1228h-285v1456h1022v-1456z" />
<glyph unicode="&#x420;" horiz-adv-x="1158" d="M395 522v-522h-285v1456h506q218 0 344 -129t126 -338q0 -210 -126.5 -338.5t-343.5 -128.5h-221zM395 750h221q91 0 139 67t48 170q0 104 -47.5 172.5t-139.5 68.5h-221v-478z" />
<glyph unicode="&#x421;" horiz-adv-x="1088" d="M1023 469l3 -6q2 -240 -114 -362t-342 -122t-361 138.5t-135 392.5v435q0 253 130.5 392.5t349.5 139.5q232 0 350.5 -124t122.5 -367l-3 -6h-274q6 143 -39 206t-157 63q-96 0 -147 -75t-51 -227v-437q0 -154 54.5 -229t159.5 -75q103 0 143.5 59.5t35.5 203.5h274z" />
<glyph unicode="&#x422;" horiz-adv-x="994" d="M967 1228h-328v-1228h-284v1228h-326v228h938v-228z" />
<glyph unicode="&#x423;" horiz-adv-x="1111" d="M569 795l3 -14h6l209 675h297l-408 -1173q-59 -145 -134 -224.5t-212 -79.5q-20 0 -47 1.5t-43 2.5l-5 227q8 -2 29 -3t36 -1q66 0 98 35.5t51 109.5l14 49h-1l-430 1056h304z" />
<glyph unicode="&#x424;" horiz-adv-x="1467" d="M879 1326q231 -2 377.5 -168t146.5 -437q0 -266 -146.5 -429t-377.5 -163v-189h-283v189h-1q-233 0 -379.5 162t-146.5 428q0 272 146.5 439.5t379.5 167.5h1v190h283v-190zM595 1083q-114 0 -181 -95t-67 -269q0 -167 67 -256.5t181 -89.5h1v710h-1zM1124 721 q0 173 -65.5 266t-173.5 88l-6 -2v-690l6 -2q108 -7 173.5 83.5t65.5 256.5z" />
<glyph unicode="&#x425;" horiz-adv-x="1127" d="M558 947h6l198 509h329l-353 -722l377 -734h-343l-204 520h-6l-204 -520h-331l362 734l-353 722h327z" />
<glyph unicode="&#x426;" horiz-adv-x="1347" d="M97 1456h284v-1229h452v1229h285v-1230h177l-19 -577h-264v351h-915v1456z" />
<glyph unicode="&#x427;" horiz-adv-x="1232" d="M1121 1456v-1456h-285v562q-53 -13 -117.5 -20.5t-106.5 -7.5q-233 0 -363 118t-130 362v442h283v-442q0 -142 49.5 -197.5t160.5 -55.5q43 0 108 7.5t116 20.5v667h285z" />
<glyph unicode="&#x428;" horiz-adv-x="1689" d="M393 1456v-1229h312v1229h283v-1229h308v1229h285v-1456h-1473v1456h285z" />
<glyph unicode="&#x429;" horiz-adv-x="1825" d="M393 1456v-1229h312v1229h283v-1229h308v1229h285v-1230h184l-19 -576h-264v350h-1374v1456h285z" />
<glyph unicode="&#x42a;" horiz-adv-x="1354" d="M37 1456h609v-536h184q219 0 349 -124.5t130 -330.5q0 -209 -130.5 -337t-348.5 -128h-467v1229h-326v227zM646 693v-466h184q92 0 143.5 68t51.5 172q0 99 -51.5 162.5t-143.5 63.5h-184z" />
<glyph unicode="&#x42b;" horiz-adv-x="1540" d="M395 920h184q219 0 349 -124.5t130 -330.5q0 -209 -130.5 -337t-348.5 -128h-467v1456h283v-536zM1428 0h-283v1456h283v-1456zM395 693v-466h184q92 0 143.5 68t51.5 172q0 99 -51.5 162.5t-143.5 63.5h-184z" />
<glyph unicode="&#x42c;" horiz-adv-x="1105" d="M393 920h184q219 0 349 -124.5t130 -330.5q0 -209 -130.5 -337t-348.5 -128h-467v1456h283v-536zM393 693v-466h184q92 0 143.5 68t51.5 172q0 99 -51.5 162.5t-143.5 63.5h-184z" />
<glyph unicode="&#x42d;" horiz-adv-x="1087" d="M69 973l-3 6q-4 239 118.5 369t346.5 130q216 0 344 -167.5t128 -436.5v-291q0 -270 -127.5 -436.5t-344.5 -166.5q-225 0 -348 127.5t-119 368.5l3 6h276q0 -144 44 -209.5t144 -65.5q96 0 141.5 100.5t45.5 273.5v40h-365v228h365v25q0 173 -46 274.5t-141 101.5 q-99 0 -143 -66.5t-44 -210.5h-275z" />
<glyph unicode="&#x42e;" horiz-adv-x="1673" d="M1540 523q0 -256 -139 -400t-370 -144t-369 144t-138 400v60h-124v-583h-283v1456h283v-645h124v120q0 255 138 400.5t368 145.5t370 -145.5t140 -400.5v-408zM1257 933q0 156 -58 235.5t-169 79.5q-112 0 -168 -79t-56 -236v-410q0 -158 57 -237t168 -79q110 0 168 79 t58 237v410z" />
<glyph unicode="&#x42f;" horiz-adv-x="1045" d="M271 0h-306l262 634q-91 61 -137 154.5t-46 219.5q0 216 122.5 332t339.5 116h440v-1456h-284v533h-170zM662 1228h-156q-89 0 -133.5 -60t-44.5 -175q0 -113 46.5 -180t137.5 -67h150v482z" />
<glyph unicode="&#x430;" horiz-adv-x="944" d="M619 0q-12 27 -21.5 59t-14.5 65q-40 -66 -97.5 -105.5t-133.5 -39.5q-134 0 -214.5 88t-80.5 235q0 159 102.5 247t304.5 88h107v88q0 79 -28.5 121.5t-85.5 42.5q-48 0 -72 -34t-24 -99l-275 1l-3 6q-5 141 104.5 240t288.5 99q169 0 274.5 -98.5t105.5 -280.5v-438 q0 -80 11 -149t34 -136h-282zM434 193q43 0 79.5 23t57.5 59v199h-107q-65 0 -94 -45t-29 -114q0 -54 25 -88t68 -34z" />
<glyph unicode="&#x431;" horiz-adv-x="1012" d="M536 1020q198 0 308 -140.5t110 -364.5v-23q0 -229 -115.5 -371t-322.5 -142q-209 0 -324.5 142t-115.5 371v149q0 359 119 553.5t306 236.5q70 16 106.5 43t36.5 84h219l2 -6q4 -190 -78 -254.5t-279 -99.5q-85 -18 -134 -84t-63 -182l3 -5q45 42 102 67.5t120 25.5z M514 793q-84 0 -119 -76.5t-35 -201.5v-23q0 -132 35 -209t121 -77q83 0 118.5 77t35.5 209v23q0 126 -35.5 202t-120.5 76z" />
<glyph unicode="&#x432;" horiz-adv-x="997" d="M109 0v1082h394q185 0 288.5 -76t103.5 -225q0 -76 -45.5 -136t-129.5 -91q113 -24 169.5 -90t56.5 -157q0 -153 -98.5 -230t-285.5 -77h-453zM393 452v-227h169q53 0 76.5 27.5t23.5 84.5q0 56 -22 85.5t-78 29.5h-169zM393 639h117q53 0 77.5 25.5t24.5 78.5 q0 59 -26.5 86t-82.5 27h-110v-217z" />
<glyph unicode="&#x433;" horiz-adv-x="741" d="M729 854h-357v-854h-284v1082h641v-228z" />
<glyph unicode="&#x434;" horiz-adv-x="1136" d="M114 228q90 101 115 200.5t27 297.5l1 356h710v-855h141l-19 -552h-265v325h-502v-325h-266l-25 553h83zM540 726q-7 -163 -37.5 -287t-81.5 -212h263v624h-144v-125z" />
<glyph unicode="&#x435;" horiz-adv-x="938" d="M513 -21q-204 0 -324 134t-120 338v152q0 219 111.5 359t308.5 140q190 0 294 -127t104 -346v-174h-535v-4q0 -107 48.5 -176t146.5 -69q80 0 130 18t119 60l72 -181q-56 -54 -149.5 -89t-205.5 -35zM489 874q-68 0 -100 -62t-36 -167h255v40q0 90 -28 139.5t-91 49.5z " />
<glyph unicode="&#x436;" horiz-adv-x="1544" d="M1016 404h-98v-404h-284v404h-96l-144 -404h-364l273 590l-266 492h360l157 -407h80v407h284v-407h83l156 407h361l-281 -493l287 -589h-364z" />
<glyph unicode="&#x437;" horiz-adv-x="910" d="M462 643q49 0 72.5 32t23.5 89q0 55 -21 90t-73 35q-50 0 -78.5 -31t-28.5 -86h-275l-3 6q-5 145 101.5 233.5t267.5 88.5q182 0 287.5 -81.5t105.5 -231.5q0 -73 -38 -134t-105 -96q78 -32 119 -96.5t41 -156.5q0 -151 -113.5 -237t-296.5 -86q-159 0 -273.5 85 t-109.5 246l3 6h275q0 -56 30 -91.5t92 -35.5q57 0 83.5 38t26.5 98q0 70 -28.5 103t-84.5 33h-129v180h129z" />
<glyph unicode="&#x438;" horiz-adv-x="998" d="M627 1082h284v-1082h-284v592l-6 1l-248 -593h-285v1082h285v-590l6 -1z" />
<glyph unicode="&#x439;" horiz-adv-x="998" d="M627 1082h284v-1082h-284v592l-6 1l-248 -593h-285v1082h285v-590l6 -1zM810 1554l2 -6q4 -129 -81.5 -209.5t-229.5 -80.5q-146 0 -232 81t-81 209l2 6h207q0 -53 25.5 -87t78.5 -34q51 0 75.5 34t24.5 87h209z" />
<glyph unicode="&#x43a;" horiz-adv-x="1013" d="M471 402h-78v-402h-284v1082h284v-409h75l160 409h359l-282 -496l306 -586h-379z" />
<glyph unicode="&#x43b;" horiz-adv-x="1000" d="M912 1082v-1082h-284v854h-177v-236q0 -320 -88.5 -469t-302.5 -149h-39l-4 230h25q83 0 103.5 76.5t20.5 311.5v464h746z" />
<glyph unicode="&#x43c;" horiz-adv-x="1345" d="M659 341h6l203 741h357v-1082h-285v566l-6 1l-176 -567h-190l-169 544l-6 -1v-543h-284v1082h350z" />
<glyph unicode="&#x43d;" horiz-adv-x="998" d="M909 0h-285v420h-252v-420h-284v1082h284v-436h252v436h285v-1082z" />
<glyph unicode="&#x43e;" d="M58 607q0 218 115.5 356.5t323.5 138.5t324 -138.5t116 -356.5v-134q0 -220 -116 -357t-323 -137q-209 0 -324.5 137t-115.5 357v134zM341 473q0 -125 35 -196t122 -71q84 0 119.5 71.5t35.5 195.5v134q0 122 -35.5 194.5t-120.5 72.5t-120.5 -73t-35.5 -194v-134z" />
<glyph unicode="&#x43f;" horiz-adv-x="998" d="M911 0h-285v854h-254v-854h-284v1082h823v-1082z" />
<glyph unicode="&#x440;" d="M940 458q0 -216 -94 -347.5t-263 -131.5q-66 0 -117.5 26.5t-89.5 78.5v-500h-284v1498h263l10 -107q39 61 92.5 94t123.5 33q171 0 265 -140.5t94 -370.5v-133zM656 591q0 128 -36 205.5t-113 77.5q-45 0 -78 -22.5t-53 -63.5v-510q20 -36 52.5 -54t79.5 -18 q79 0 113.5 67t34.5 185v133z" />
<glyph unicode="&#x441;" horiz-adv-x="910" d="M487 206q58 0 87.5 43t29.5 124h258l3 -6q3 -170 -104.5 -279t-273.5 -109q-210 0 -322.5 137t-112.5 354v139q0 216 112 354.5t321 138.5q176 0 279.5 -113t100.5 -305l-2 -5h-259q0 88 -29.5 141.5t-89.5 53.5q-85 0 -117 -72t-32 -193v-139q0 -124 32 -194t119 -70z " />
<glyph unicode="&#x442;" horiz-adv-x="914" d="M880 856h-283v-856h-286v856h-280v226h849v-226z" />
<glyph unicode="&#x443;" horiz-adv-x="909" d="M440 444l2 -11l158 649h304l-365 -1245q-41 -117 -109.5 -195.5t-209.5 -78.5q-35 0 -62 6t-72 18l33 212q17 -3 24.5 -4.5t16.5 -1.5q62 0 93.5 32.5t45.5 85.5l25 80l-319 1091h305z" />
<glyph unicode="&#x444;" horiz-adv-x="1285" d="M55 535q0 256 88.5 411.5t252.5 155.5q28 0 53 -5.5t49 -14.5v478h285v-479q24 10 50 15.5t55 5.5q163 0 252 -155.5t89 -411.5v-21q0 -243 -89 -389t-251 -146q-30 0 -56.5 5.5t-49.5 14.5v-415h-285v414q-24 -9 -50.5 -14t-53.5 -5q-162 0 -250.5 146.5t-88.5 388.5v21 zM944 535q0 154 -31 246.5t-100 92.5q-8 0 -15 -1t-15 -1v-664q6 -2 13 -2h19q69 0 99 81.5t30 226.5v21zM339 514q0 -146 29 -227t100 -81q6 0 13 0.5t17 1.5v664q-9 1 -15.5 1.5t-12.5 0.5q-70 0 -100.5 -92.5t-30.5 -246.5v-21z" />
<glyph unicode="&#x445;" horiz-adv-x="909" d="M451 741h6l114 341h320l-268 -535l276 -547h-319l-119 351h-6l-119 -351h-320l275 547l-268 535h319z" />
<glyph unicode="&#x446;" horiz-adv-x="1088" d="M88 1082h284v-855h254v855h285v-857h150l-19 -546h-265v321h-689v1082z" />
<glyph unicode="&#x447;" horiz-adv-x="985" d="M897 0h-285v342q-26 -6 -50 -8.5t-44 -2.5q-213 0 -327 100.5t-114 314.5v336h283v-336q0 -109 35 -148.5t123 -39.5q23 0 46.5 2.5t47.5 9.5v512h285v-1082z" />
<glyph unicode="&#x448;" horiz-adv-x="1465" d="M372 1082v-855h210v855h284v-855h212v855h283v-1082h-1273v1082h284z" />
<glyph unicode="&#x449;" horiz-adv-x="1626" d="M370 1082v-855h210v855h284v-855h212v855h283v-856h205l-19 -547h-265v321h-1194v1082h284z" />
<glyph unicode="&#x44a;" horiz-adv-x="1171" d="M575 763h147q193 0 303.5 -105.5t110.5 -278.5q0 -170 -111 -274.5t-303 -104.5h-432v854h-253v228h538v-319zM575 537v-312h147q66 0 98.5 43t32.5 111q0 70 -32.5 114t-98.5 44h-147z" />
<glyph unicode="&#x44b;" horiz-adv-x="1489" d="M394 763h147q193 0 303.5 -105.5t110.5 -278.5q0 -170 -111 -274.5t-303 -104.5h-432v1082h285v-319zM1369 0h-285v1082h285v-1082zM394 537v-312h147q66 0 98.5 43t32.5 111q0 70 -32.5 114t-98.5 44h-147z" />
<glyph unicode="&#x44c;" horiz-adv-x="994" d="M394 763h147q193 0 303.5 -105.5t110.5 -278.5q0 -170 -111 -274.5t-303 -104.5h-432v1082h285v-319zM394 537v-312h147q66 0 98.5 43t32.5 111q0 70 -32.5 114t-98.5 44h-147z" />
<glyph unicode="&#x44d;" horiz-adv-x="907" d="M432 874q-59 0 -87.5 -43t-28.5 -123h-259l-3 6q-4 168 104 278t274 110q206 0 319 -153.5t113 -394.5v-28q0 -242 -113 -394.5t-318 -152.5q-175 0 -279 112.5t-100 305.5l2 5h260q0 -89 29 -142.5t88 -53.5q72 0 105 67.5t39 185.5h-201v169h201q-7 115 -40 180.5 t-105 65.5z" />
<glyph unicode="&#x44e;" horiz-adv-x="1422" d="M398 663h89q14 196 128.5 317.5t308.5 121.5q208 0 324 -138.5t116 -356.5v-134q0 -220 -116 -357t-323 -137q-200 0 -314.5 126t-124.5 331h-88v-436h-285v1082h285v-419zM768 473q0 -125 35 -196t122 -71q84 0 119.5 71.5t35.5 195.5v134q0 122 -35.5 194.5 t-120.5 72.5t-120.5 -73t-35.5 -194v-134z" />
<glyph unicode="&#x44f;" horiz-adv-x="992" d="M882 1082v-1082h-284v375h-104l-176 -375h-285l202 428q-85 44 -130.5 120t-45.5 172q0 159 111 260.5t297 101.5h415zM343 711q0 -56 33 -98.5t93 -42.5h129v286h-131q-59 0 -91.5 -44t-32.5 -101z" />
<glyph unicode="&#x450;" horiz-adv-x="938" d="M513 -21q-204 0 -324 134t-120 338v152q0 219 111.5 359t308.5 140q190 0 294 -127t104 -346v-174h-535v-4q0 -107 48.5 -176t146.5 -69q80 0 130 18t119 60l72 -181q-56 -54 -149.5 -89t-205.5 -35zM489 874q-68 0 -100 -62t-36 -167h255v40q0 90 -28 139.5t-91 49.5z M611 1238h-230l-246 260l3 6h298z" />
<glyph unicode="&#x451;" horiz-adv-x="938" d="M513 -21q-204 0 -324 134t-120 338v152q0 219 111.5 359t308.5 140q190 0 294 -127t104 -346v-174h-535v-4q0 -107 48.5 -176t146.5 -69q80 0 130 18t119 60l72 -181q-56 -54 -149.5 -89t-205.5 -35zM489 874q-68 0 -100 -62t-36 -167h255v40q0 90 -28 139.5t-91 49.5z M817 1285h-250v198h250v-198zM369 1285h-251v198h251v-198z" />
<glyph unicode="&#x452;" horiz-adv-x="997" d="M552 1193h-184v-240q42 71 101 110t130 39q144 0 226 -114.5t82 -353.5v-166h1v-502q0 -193 -90 -298t-250 -105q-36 0 -66 4t-62 13l11 223q23 -6 41.5 -9.5t41.5 -3.5q42 0 65.5 45.5t23.5 130.5l-1 670q0 134 -31.5 186t-98.5 52q-40 0 -71 -17.5t-53 -48.5v-808h-284 v1193h-113v175h113v192h284v-192h184v-175z" />
<glyph unicode="&#x453;" horiz-adv-x="741" d="M729 854h-357v-854h-284v1082h641v-228zM399 1483h299l3 -6l-249 -260h-229z" />
<glyph unicode="&#x454;" horiz-adv-x="908" d="M487 206q58 0 87.5 43t29.5 124h258l3 -6q3 -170 -104.5 -279t-273.5 -109q-210 0 -322.5 137t-112.5 354v139q0 216 112 354.5t321 138.5q176 0 279.5 -113t100.5 -305l-2 -5h-259q0 88 -29.5 141.5t-89.5 53.5q-85 0 -117 -71.5t-32 -189.5h218v-169h-218 q2 -112 35.5 -175t115.5 -63z" />
<glyph unicode="&#x455;" horiz-adv-x="888" d="M563 283q0 46 -36 79.5t-138 82.5q-163 61 -244.5 138t-81.5 200q0 132 104.5 225.5t276.5 93.5q180 0 287 -96t103 -245l-3 -6h-274q0 68 -28 108t-86 40q-46 0 -78 -31t-32 -75q0 -48 32 -77.5t139 -80.5q170 -58 252 -137.5t82 -208.5q0 -138 -110 -226t-289 -88 q-187 0 -296 109t-104 246l2 6h260q2 -86 40 -124t105 -38q57 0 87 28t30 77z" />
<glyph unicode="&#x456;" horiz-adv-x="495" d="M389 0h-284v1082h284v-1082zM389 1343h-284v217h284v-217z" />
<glyph unicode="&#x457;" horiz-adv-x="513" d="M398 0h-285v1082h285v-1082zM607 1263h-250v198h250v-198zM159 1263h-251v198h251v-198z" />
<glyph unicode="&#x458;" horiz-adv-x="487" d="M395 1082v-1115q0 -194 -90 -299t-250 -105q-35 0 -64 4.5t-64 13.5l12 223q22 -6 40 -9t40 -3q44 0 67.5 44t23.5 131v1115h285zM389 1343h-284v217h284v-217z" />
<glyph unicode="&#x459;" horiz-adv-x="1507" d="M907 1082v-344h148q192 0 303 -101.5t111 -266.5q0 -167 -111 -268.5t-303 -101.5h-432v854h-154v-236q0 -316 -96 -467t-312 -151h-39l-4 228h24q72 0 107.5 94.5t35.5 295.5v464h722zM907 512v-287h148q66 0 98.5 41t32.5 106q0 61 -32.5 100.5t-98.5 39.5h-148z" />
<glyph unicode="&#x45a;" horiz-adv-x="1508" d="M372 660h252v422h285v-344h147q192 0 303 -101.5t111 -266.5q0 -167 -111 -268.5t-303 -101.5h-432v434h-252v-434h-284v1082h284v-422zM909 512v-287h147q66 0 98.5 41t32.5 106q0 61 -32.5 100.5t-98.5 39.5h-147z" />
<glyph unicode="&#x45b;" horiz-adv-x="997" d="M564 1206h-196v-253q42 71 101 110t130 39q144 0 226 -114.5t82 -353.5v-634h-285v636q0 134 -31.5 186t-98.5 52q-40 0 -71 -17.5t-53 -48.5v-808h-284v1206h-101v175h101v179h284v-179h196v-175z" />
<glyph unicode="&#x45c;" horiz-adv-x="1013" d="M471 402h-78v-402h-284v1082h284v-409h75l160 409h359l-282 -496l306 -586h-379zM530 1482h299l3 -6l-249 -260h-229z" />
<glyph unicode="&#x45d;" horiz-adv-x="998" d="M627 1082h284v-1082h-284v592l-6 1l-248 -593h-285v1082h285v-590l6 -1zM645 1216h-230l-246 260l3 6h298z" />
<glyph unicode="&#x45e;" horiz-adv-x="909" d="M440 444l2 -11l158 649h304l-365 -1245q-41 -117 -109.5 -195.5t-209.5 -78.5q-35 0 -62 6t-72 18l33 212q17 -3 24.5 -4.5t16.5 -1.5q62 0 93.5 32.5t45.5 85.5l25 80l-319 1091h305zM762 1554l2 -6q4 -129 -81.5 -209.5t-229.5 -80.5q-146 0 -232 81t-81 209l2 6h207 q0 -53 25.5 -87t78.5 -34q51 0 75.5 34t24.5 87h209z" />
<glyph unicode="&#x45f;" horiz-adv-x="998" d="M372 1082v-855h254v855h285v-1082h-270v-358h-284v358h-269v1082h284z" />
<glyph unicode="&#x460;" horiz-adv-x="1678" d="M1566 1456v-995q0 -231 -120.5 -356.5t-315.5 -125.5q-93 0 -169.5 38t-127.5 112q-52 -74 -128 -112t-169 -38q-195 0 -315.5 125.5t-120.5 356.5v995h285v-995q0 -129 39.5 -192t111.5 -63q74 0 114 62.5t40 192.5v995h286v-995q0 -129 40.5 -192t113.5 -63t112.5 62.5 t39.5 192.5v995h284z" />
<glyph unicode="&#x461;" horiz-adv-x="1448" d="M1394 1082v-629q0 -228 -108 -351t-286 -123q-83 0 -150 33.5t-112 99.5q-47 -66 -115 -99.5t-151 -33.5q-178 0 -285 123t-107 351v629h284v-629q0 -127 26.5 -186.5t78.5 -54.5h6q61 -5 92.5 54.5t31.5 186.5v629h284v-629q0 -129 27.5 -187.5t86.5 -52.5h6 q54 -6 80 52.5t26 187.5v629h285z" />
<glyph unicode="&#x462;" horiz-adv-x="1105" d="M562 1093h-169v-173h184q219 0 349 -124.5t130 -330.5q0 -209 -130.5 -337t-348.5 -128h-467v1093h-129v175h129v188h283v-188h169v-175zM393 693v-466h184q92 0 143.5 68t51.5 172q0 99 -51.5 162.5t-143.5 63.5h-184z" />
<glyph unicode="&#x463;" horiz-adv-x="994" d="M592 1081h-199v-296h148q192 0 303 -108t111 -283q0 -177 -111 -285.5t-303 -108.5h-432v1081h-121v175h121v305h284v-305h199v-175zM393 559v-334h148q66 0 98.5 47t32.5 122q0 71 -32.5 118t-98.5 47h-148z" />
<glyph unicode="&#x464;" horiz-adv-x="1562" d="M382 858h136v88q0 253 130.5 392.5t349.5 139.5q232 0 350.5 -124t122.5 -367l-3 -6h-274q6 143 -39 206t-157 63q-96 0 -147 -75t-51 -227v-90h352v-228h-352v-119q0 -154 54.5 -229t159.5 -75q103 0 143.5 59.5t35.5 203.5h274l3 -6q2 -240 -114 -362t-342 -122 t-361 138.5t-135 392.5v119h-136v-630h-283v1456h283v-598z" />
<glyph unicode="&#x465;" horiz-adv-x="1330" d="M380 632h86q6 207 118 338.5t315 131.5q176 0 279.5 -113t100.5 -305l-2 -5h-259q0 88 -29.5 141.5t-89.5 53.5q-81 0 -114 -66t-35 -176h241v-175h-241q0 -118 33 -184.5t118 -66.5q58 0 87.5 43t29.5 124h258l3 -6q3 -170 -104.5 -279t-273.5 -109q-207 0 -319.5 132.5 t-115.5 345.5h-86v-457h-285v1082h285v-450z" />
<glyph unicode="&#x466;" horiz-adv-x="1182" d="M768 388h-61v-388h-234v388h-51l-106 -388h-298l430 1456h296l428 -1456h-297zM476 586h238l-117 422h-6z" />
<glyph unicode="&#x467;" horiz-adv-x="1001" d="M619 276h-44v-276h-174v276h-33l-69 -276h-290l336 1082h298l336 -1082h-289zM414 457h159l-55 215l-22 106h-6l-22 -106z" />
<glyph unicode="&#x468;" horiz-adv-x="1669" d="M401 586h256l257 870h296l428 -1456h-297l-107 388h-61v-388h-234v388h-51l-106 -388h-298l114 387h-197v-387h-283v1456h283v-870zM942 586h238l-117 422h-6z" />
<glyph unicode="&#x469;" horiz-adv-x="1425" d="M381 457h195l194 625h298l336 -1082h-289l-71 276h-44v-276h-174v276h-33l-69 -276h-290l86 277h-139v-277h-285v1082h285v-625zM839 457h159l-55 215l-22 106h-6l-22 -106z" />
<glyph unicode="&#x46a;" horiz-adv-x="1548" d="M1028 796q209 -11 317.5 -119t108.5 -336v-341h-284v341q0 126 -45 176t-144 50h-52v-567h-283v567h-80q-99 0 -144 -50t-45 -176v-341h-284v341q0 238 116 345t344 111l-321 659h1118zM788 887h6l145 338h-297z" />
<glyph unicode="&#x46b;" horiz-adv-x="1295" d="M89 0v187q0 200 85 301t249 119l-235 475h933l-236 -476q156 -22 238 -123t82 -296v-187h-284v187q0 115 -29.5 160.5t-91.5 39.5l-6 -1v-386h-284v397h-5q-70 0 -101 -46.5t-31 -163.5v-187h-284zM651 673h6l86 225h-178z" />
<glyph unicode="&#x46c;" horiz-adv-x="2066" d="M610 0v341q0 67 9.5 124t28.5 104h-240v-569h-283v1456h283v-657h662l-321 657h1118l-322 -660q209 -11 317.5 -119t108.5 -336v-341h-284v341q0 126 -45 176t-144 50h-52v-567h-283v567h-80q-99 0 -144 -50t-45 -176v-341h-284zM1305 887h6l145 338h-297z" />
<glyph unicode="&#x46d;" horiz-adv-x="1792" d="M586 0v187q0 65 8.5 119.5t27.5 99.5h-224v-406h-285v1082h285v-469h519l-232 469h933l-236 -476q156 -22 238 -123t82 -296v-187h-284v187q0 115 -29.5 160.5t-91.5 39.5l-6 -1v-386h-284v397h-5q-70 0 -101 -46.5t-31 -163.5v-187h-284zM1148 673h6l86 225h-178z" />
<glyph unicode="&#x46e;" horiz-adv-x="906" d="M323 863q79 0 117 50.5t38 136.5q0 81 -41.5 126t-125.5 45h-207v235h207q211 0 331 -94t120 -284q0 -120 -52 -204t-146 -128q117 -43 179.5 -129.5t62.5 -210.5q0 -202 -116 -313.5t-314 -111.5h-47q-44 0 -63.5 -25.5t-19.5 -71.5q0 -57 34 -93.5t81 -61.5l-76 -172 q-150 33 -222.5 128.5t-74.5 239.5q0 142 84.5 216.5t230.5 74.5h56q76 0 119.5 51t43.5 135q0 111 -53 168t-154 57h-123v236h131zM404 1786l88 127h256v-17l-248 -253h-192l-248 255v15h256z" />
<glyph unicode="&#x46f;" horiz-adv-x="901" d="M349 625q62 0 92 36.5t30 99.5q0 54 -38.5 85.5t-113.5 31.5h-212v204h212q203 0 319 -73t116 -221q0 -86 -40.5 -148t-114.5 -98q96 -34 147.5 -94t51.5 -144q0 -152 -107.5 -237.5t-290.5 -85.5h-42q-52 0 -75.5 -25.5t-23.5 -71.5q0 -57 29 -93.5t69 -61.5l-76 -156 q-119 40 -191 133.5t-73 218.5q0 127 75.5 193t206.5 66h51q76 0 120.5 36t44.5 95q0 67 -45 102t-130 35h-140v173h149zM411 1400l88 127h256v-17l-248 -253h-192l-248 255v15h256z" />
<glyph unicode="&#x470;" horiz-adv-x="1286" d="M789 599l6 -1q81 14 121.5 102.5t40.5 248.5v507h285v-507q0 -259 -121.5 -414t-331.5 -182v-353h-284v351q-217 22 -341 178t-124 420v507h284v-507q0 -153 45.5 -242.5t129.5 -107.5l6 1v856h284v-857z" />
<glyph unicode="&#x471;" horiz-adv-x="1336" d="M801 1081v-840l6 -1q98 30 143.5 124t45.5 234q-2 116 -24 235.5t-60 248.5h258q50 -98 80.5 -218.5t30.5 -265.5q0 -243 -114 -409t-366 -201v-461h-284v464q-222 35 -342.5 181.5t-120.5 415.5v494h285v-496q0 -149 46 -234t126 -109l6 1v837h284z" />
<glyph unicode="&#x472;" horiz-adv-x="1215" d="M1097 523q0 -256 -139 -400t-370 -144t-369 144t-138 400v408q0 255 138 400.5t368 145.5t370 -145.5t140 -400.5v-408zM814 645h-451v-122q0 -158 57 -237t168 -79q110 0 168 79t58 237v122zM363 820h451v113q0 156 -58 235.5t-169 79.5q-112 0 -168 -79t-56 -236v-113z " />
<glyph unicode="&#x473;" horiz-adv-x="994" d="M56 607q0 218 115.5 356.5t323.5 138.5t324 -138.5t116 -356.5v-134q0 -220 -116 -357t-323 -137q-209 0 -324.5 137t-115.5 357v134zM495 874q-82 0 -118 -67.5t-38 -181.5h312q-3 114 -39 181.5t-117 67.5zM496 206q79 0 114.5 64.5t39.5 178.5h-311q3 -115 38.5 -179 t118.5 -64z" />
<glyph unicode="&#x474;" horiz-adv-x="1140" d="M559 376l11 -55h6l10 52l160 758q46 173 122 258.5t204 85.5l36 -1l-3 -236h-27q-35 0 -57.5 -32.5t-28.5 -91.5l-271 -1114h-295l-412 1456h300z" />
<glyph unicode="&#x475;" horiz-adv-x="908" d="M424 408l10 -62h6l9 62l58 359q42 166 118 250.5t196 84.5q26 0 47 -4.5t39 -13.5l-21 -223q-2 1 -17 3t-23 2q-33 0 -57 -31t-30 -82l-181 -753h-278l-285 1082h297z" />
<glyph unicode="&#x476;" horiz-adv-x="1140" d="M559 376l11 -55h6l10 52l160 758q46 173 122 258.5t204 85.5l36 -1l-3 -236h-27q-35 0 -57.5 -32.5t-28.5 -91.5l-271 -1114h-295l-412 1456h300zM505 1588h-229l-238 261l2 5h263zM817 1588h-227l-206 266h267z" />
<glyph unicode="&#x477;" horiz-adv-x="908" d="M424 408l10 -62h6l9 62l58 359q42 166 118 250.5t196 84.5q26 0 47 -4.5t39 -13.5l-21 -223q-2 1 -17 3t-23 2q-33 0 -57 -31t-30 -82l-181 -753h-278l-285 1082h297zM422 1258h-229l-238 261l2 5h263zM734 1258h-227l-206 266h267z" />
<glyph unicode="&#x478;" horiz-adv-x="2075" d="M1091 523q0 -256 -139 -400t-370 -144t-369 144t-138 400v408q0 255 138 400.5t368 145.5t370 -145.5t140 -400.5v-408zM808 933q0 156 -58 235.5t-169 79.5q-112 0 -168 -79t-56 -236v-410q0 -158 57 -237t168 -79q110 0 168 79t58 237v410zM1606 444l2 -11l158 649h304 l-365 -1245q-41 -117 -109.5 -195.5t-209.5 -78.5q-35 0 -62 6t-72 18l33 212q17 -3 24.5 -4.5t16.5 -1.5q62 0 93.5 32.5t45.5 85.5l25 80l-319 1091h305z" />
<glyph unicode="&#x479;" horiz-adv-x="1904" d="M58 607q0 218 115.5 356.5t323.5 138.5t324 -138.5t116 -356.5v-134q0 -220 -116 -357t-323 -137q-209 0 -324.5 137t-115.5 357v134zM341 473q0 -125 35 -196t122 -71q84 0 119.5 71.5t35.5 195.5v134q0 122 -35.5 194.5t-120.5 72.5t-120.5 -73t-35.5 -194v-134z M1435 444l2 -11l158 649h304l-365 -1245q-41 -117 -109.5 -195.5t-209.5 -78.5q-35 0 -62 6t-72 18l33 212q17 -3 24.5 -4.5t16.5 -1.5q62 0 93.5 32.5t45.5 85.5l25 80l-319 1091h305z" />
<glyph unicode="&#x47a;" horiz-adv-x="1215" d="M1097 523q0 -256 -139 -400q-104 -108 -259 -134v-124h-179v117q-184 19 -301 141q-138 144 -138 400v408q0 255 138 400q116 123 299 142v103h179v-108q155 -28 260 -137q140 -145 140 -400v-408zM814 933q0 156 -58 235q-25 34 -59 53v-102h-179v120q-62 -18 -99 -70 q-56 -79 -56 -236v-410q0 -158 57 -237q38 -53 100 -71v116h179v-97q33 19 57 52q58 79 58 237v410z" />
<glyph unicode="&#x47b;" horiz-adv-x="997" d="M585 -126h-178v113q-145 23 -234 129q-115 137 -115 357v134q0 218 115 356q91 109 239 132v109h179v-110q141 -25 230 -131q116 -138 116 -356v-134q0 -220 -116 -357q-91 -107 -236 -130v-112zM341 473q0 -125 35 -196q12 -25 31 -42v100h178v-100q19 16 32 42 q36 72 36 196v134q0 122 -36 194q-11 22 -26 38v-81h-179v89q-22 -18 -36 -46q-35 -73 -35 -194v-134z" />
<glyph unicode="&#x47c;" horiz-adv-x="1678" d="M1113 1447l6 2q190 4 310 -123t120 -360v-498q0 -234 -121 -361.5t-315 -127.5q-90 0 -164 35t-125 104q-52 -69 -125.5 -104t-162.5 -35q-195 0 -315.5 127.5t-120.5 361.5v498q0 233 120 360t310 123l6 -2v-219q-72 0 -111.5 -65.5t-39.5 -196.5v-498q0 -132 39.5 -197 t111.5 -65q74 0 114 62.5t40 192.5v364h269v-364q0 -130 39.5 -192.5t114.5 -62.5q71 0 111.5 65t40.5 197v498q0 131 -40.5 196.5t-111.5 65.5v219zM1207 1703v-127h-17q-108 0 -246 62.5t-170 62.5q-35 0 -56.5 -28t-21.5 -80v-18h-121v36q0 108 51.5 163t144.5 55 q58 0 192 -63t228 -63h16zM786 1290l-74 50l49 108l-1 148h161v-131z" />
<glyph unicode="&#x47d;" horiz-adv-x="1429" d="M915 1091l6 2q180 4 295 -117t115 -343v-188q0 -223 -106.5 -344.5t-276.5 -121.5q-74 0 -134.5 34t-102.5 101q-43 -67 -103.5 -101t-132.5 -34q-172 0 -277.5 121.5t-105.5 344.5v188q0 222 114 343t296 117l6 -2v-219q-63 0 -97 -59.5t-34 -179.5v-188 q0 -121 25 -179.5t70 -52.5h6q46 -6 72.5 54t26.5 186v160h269v-160q0 -126 26 -186t73 -54h6q44 -6 70 52.5t26 179.5v188q0 120 -35 179.5t-97 59.5v219zM1100 1364v-128h-16q-109 0 -247 62.5t-169 62.5q-36 0 -57.5 -27.5t-21.5 -80.5v-18h-120v36q0 108 51 163t145 55 q57 0 191.5 -62.5t227.5 -62.5h16zM666 977l-77 58l65 99l-1 112l178 -10l-3 -107z" />
<glyph unicode="&#x47e;" horiz-adv-x="1679" d="M450 1688v108h777l1 -108h-313v-125h-167v125h-298zM1566 1456v-995q0 -231 -120.5 -356.5t-315.5 -125.5q-93 0 -169.5 38t-127.5 112q-52 -74 -128 -112t-169 -38q-195 0 -315.5 125.5t-120.5 356.5v995h285v-995q0 -129 39.5 -192t111.5 -63q74 0 114 62.5t40 192.5 v995h286v-995q0 -129 40.5 -192t113.5 -63t112.5 62.5t39.5 192.5v995h284z" />
<glyph unicode="&#x47f;" horiz-adv-x="1449" d="M384 1349v108h710l5 -108h-285v-127h-166v127h-264zM1394 1082v-629q0 -228 -108 -351t-286 -123q-83 0 -150 33.5t-112 99.5q-47 -66 -115 -99.5t-151 -33.5q-178 0 -285 123t-107 351v629h284v-629q0 -127 26.5 -186.5t78.5 -54.5h6q61 -5 92.5 54.5t31.5 186.5v629 h284v-629q0 -129 27.5 -187.5t86.5 -52.5h6q54 -6 80 52.5t26 187.5v629h285z" />
<glyph unicode="&#x480;" horiz-adv-x="1089" d="M740 -360h-284v350q-176 37 -277.5 196.5t-101.5 395.5v291q0 268 130.5 436t348.5 168q224 0 342.5 -128t115.5 -370l-2 -5h-277q0 145 -40.5 210t-138.5 65t-147 -102t-49 -272v-293q0 -171 49.5 -273.5t146.5 -102.5h184v-566z" />
<glyph unicode="&#x481;" horiz-adv-x="946" d="M693 -362h-284v352q-162 35 -248 180t-86 356v28q0 241 111.5 394.5t319.5 153.5q174 0 277.5 -113t100.5 -305l-2 -5h-259q0 88 -29 141.5t-88 53.5q-83 0 -115 -87t-32 -233v-28q0 -149 31.5 -234.5t116.5 -85.5h186v-568z" />
<glyph unicode="&#x482;" horiz-adv-x="1098" d="M521 446l244 -172l-64 -123l-246 170l-153 -321h-155l190 398l-244 171l63 123l248 -171l168 365l-246 171l65 125l246 -171l154 331h152l-189 -408l247 -171l-67 -122l-244 170z" />
<glyph unicode="&#x483;" horiz-adv-x="16" d="M-604 1315v-125l-163 1l1 233h470l-1 108l161 -1v-216h-468z" />
<glyph unicode="&#x484;" horiz-adv-x="16" d="M-740 1431q96 0 235 63t199 63q96 0 149 -55t53 -163v-36h-124v18q0 52 -22.5 80t-58.5 28q-33 0 -175.5 -62.5t-253.5 -62.5h-18v127h16z" />
<glyph unicode="&#x485;" horiz-adv-x="16" d="M-503 1500v146h169l-1 -163l49 -108l-73 -65z" />
<glyph unicode="&#x486;" horiz-adv-x="16" d="M-425 1310l-74 65l49 108l-1 163h169v-146z" />
<glyph unicode="&#x488;" horiz-adv-x="0" d="M-687 1267l-3 6q-3 79 44 130.5t129 51.5q81 0 129 -52t44 -130l-3 -6h-87q0 43 -20 72t-63 29q-42 0 -62.5 -29t-20.5 -72h-87zM-187 990l-3 6q-3 79 44.5 130.5t128.5 51.5q80 0 127.5 -52t44.5 -130l-3 -6h-87q0 43 -19.5 72t-62.5 29q-42 0 -62 -29t-20 -72h-88z M-29 487l-3 6q-3 79 43.5 130.5t126.5 51.5q82 0 129.5 -51.5t44.5 -130.5l-3 -6h-87q0 44 -20.5 72.5t-63.5 28.5q-41 0 -60.5 -29t-19.5 -72h-87zM-196 -32l-3 6q-3 78 45 130t128 52q81 0 127.5 -51.5t43.5 -130.5l-3 -6h-85q0 43 -20 72t-63 29q-42 0 -62 -29t-20 -72 h-88zM-683 -316l-3 6q-3 80 44 131t128 51q83 0 130.5 -51t43.5 -131l-3 -6h-87q0 45 -20 73t-64 28q-41 0 -61 -28.5t-20 -72.5h-88zM-1172 990l-3 6q-3 79 44.5 130.5t128.5 51.5q82 0 130 -52t44 -130l-3 -6h-87q0 44 -20 72.5t-64 28.5q-42 0 -62 -29t-20 -72h-88z M-1321 487l-3 6q-3 78 44.5 130t127.5 52q83 0 130.5 -51.5t43.5 -130.5l-3 -6h-86q0 43 -20.5 72t-64.5 29q-41 0 -61 -29t-20 -72h-88zM-1181 -32l-3 6q-3 78 45 130t128 52q83 0 130.5 -51.5t43.5 -130.5l-3 -6h-87q0 44 -20 72.5t-64 28.5q-41 0 -61 -29t-20 -72h-89z " />
<glyph unicode="&#x489;" horiz-adv-x="0" d="M-428 -60l9 -14l-103 -339h-81l59 353h116zM-593 1126l-10 14l103 338h81l-59 -352h-115zM-20 631l11 12l280 -124v-98l-291 71v139zM-1005 433l-10 -12l-282 124v98l292 -71v-139zM-223 1002l2 16l270 153l57 -68q-31 -23 -247 -200zM-801 21l-2 -17l-271 -153l-58 69 l249 200zM-920 860l-14 2l-125 326l54 69l168 -299zM-106 161l14 -2l125 -325l-54 -71l-167 299z" />
<glyph unicode="&#x48a;" horiz-adv-x="1226" d="M834 1456h284v-1456h-284v904l-6 1l-445 -905h-284v1456h284v-904l6 -1zM919 1897l2 -6q4 -129 -81.5 -209.5t-229.5 -80.5q-146 0 -232 81t-81 209l2 6h207q0 -53 25.5 -87t78.5 -34q51 0 75.5 34t24.5 87h209zM1357 -35l-145 -311h-166l59 319v231h252v-239z" />
<glyph unicode="&#x48b;" horiz-adv-x="998" d="M627 1082h284v-1082h-284v592l-6 1l-248 -593h-285v1082h285v-590l6 -1zM810 1554l2 -6q4 -129 -81.5 -209.5t-229.5 -80.5q-146 0 -232 81t-81 209l2 6h207q0 -53 25.5 -87t78.5 -34q51 0 75.5 34t24.5 87h209zM1150 -35l-145 -311h-166l59 319v231h252v-239z" />
<glyph unicode="&#x48c;" horiz-adv-x="1105" d="M562 1093h-169v-173h184q219 0 349 -124.5t130 -330.5q0 -209 -130.5 -337t-348.5 -128h-467v1093h-129v175h129v188h283v-188h169v-175zM393 693v-466h184q92 0 143.5 68t51.5 172q0 99 -51.5 162.5t-143.5 63.5h-184z" />
<glyph unicode="&#x48d;" horiz-adv-x="994" d="M592 1280h-199v-495h148q192 0 303 -108t111 -283q0 -177 -111 -285.5t-303 -108.5h-432v1280h-121v176h121v156h284v-156h199v-176zM393 559v-334h148q66 0 98.5 47t32.5 122q0 71 -32.5 118t-98.5 47h-148z" />
<glyph unicode="&#x48e;" horiz-adv-x="1104" d="M396 522v-522h-285v1456h506q218 0 344 -129t126 -338q0 -210 -127 -339q-6 -6 -12 -11l106 -131l-90 -85l-118 146q-98 -47 -229 -47h-221zM396 750h221q40 0 72 13l-118 147l90 86l116 -144q27 57 27 135q0 104 -47.5 172.5t-139.5 68.5h-221v-478z" />
<glyph unicode="&#x48f;" horiz-adv-x="992" d="M940 458q0 -216 -94 -348l-5 -7l80 -106l-92 -83l-80 106q-71 -41 -166 -41q-66 0 -117.5 26.5t-89.5 78.5v-500h-284v1498h263l10 -107q39 61 92.5 94t123.5 33q171 0 265 -140.5t94 -370.5v-133zM656 591q0 128 -36 205.5t-113 77.5q-45 0 -78 -22.5t-53 -63.5v-510 q20 -36 52.5 -54t79.5 -18q50 0 82 26l-107 144l91 83l74 -100q8 44 8 99v133z" />
<glyph unicode="&#x490;" horiz-adv-x="983" d="M943 1229h-14v-1h-535v-1228h-285v1456h551v377h283v-604z" />
<glyph unicode="&#x491;" horiz-adv-x="828" d="M773 855h-45v-1h-357v-854h-284v1082h402v320h284v-547z" />
<glyph unicode="&#x492;" horiz-adv-x="983" d="M567 666h-171v-666h-285v666h-125v175h125v615h820v-228h-535v-387h171v-175z" />
<glyph unicode="&#x493;" horiz-adv-x="741" d="M540 457h-168v-457h-284v457h-129v175h129v450h641v-228h-357v-222h168v-175z" />
<glyph unicode="&#x494;" horiz-adv-x="975" d="M931 1228h-535v-392h139q238 0 376.5 -148t138.5 -439q0 -241 -114.5 -413.5t-360.5 -168.5l-6 2l-1 205q124 0 161 103.5t37 256.5q0 188 -58.5 280.5t-172.5 92.5h-139v-607h-285v1456h820v-228z" />
<glyph unicode="&#x495;" horiz-adv-x="950" d="M728 854h-357v-191h22q225 0 358 -123t133 -362q3 -131 -79.5 -264.5t-232.5 -197.5l-125 186q71 48 112 115t41 161q0 128 -53.5 192t-153.5 64h-22v-434h-284v1082h641v-228z" />
<glyph unicode="&#x496;" horiz-adv-x="1788" d="M1187 604h-139v-604h-284v604h-144l-245 -604h-354l377 798l-360 658h353l250 -594h123v594h284v-594h119l242 594h352l-352 -655l369 -801h-353zM1892 -356h-284v558h284v-558z" />
<glyph unicode="&#x497;" horiz-adv-x="1544" d="M1016 404h-98v-404h-284v404h-96l-144 -404h-364l273 590l-266 492h360l157 -407h80v407h284v-407h83l156 407h361l-281 -493l287 -589h-364zM1596 -356h-284v558h284v-558z" />
<glyph unicode="&#x498;" horiz-adv-x="1092" d="M988 1062q0 -101 -51.5 -184t-141.5 -131q102 -42 157 -129t55 -212q0 -200 -133 -313.5t-347 -113.5q-189 0 -326.5 107t-132.5 312l2 6h276q0 -85 50.5 -141.5t130.5 -56.5q90 0 142.5 57t52.5 147q0 116 -45 169t-134 53h-152v221h152q82 0 121.5 53.5t39.5 151.5 q0 83 -45.5 137t-131.5 54q-72 0 -118 -51t-46 -135h-276l-2 6q-5 182 124.5 295t317.5 113q213 0 337 -108t124 -307zM682 -480h-284v558h284v-558z" />
<glyph unicode="&#x499;" horiz-adv-x="910" d="M462 643q49 0 72.5 32t23.5 89q0 55 -21 90t-73 35q-50 0 -78.5 -31t-28.5 -86h-275l-3 6q-5 145 101.5 233.5t267.5 88.5q182 0 287.5 -81.5t105.5 -231.5q0 -73 -38 -134t-105 -96q78 -32 119 -96.5t41 -156.5q0 -151 -113.5 -237t-296.5 -86q-159 0 -273.5 85 t-109.5 246l3 6h275q0 -56 30 -91.5t92 -35.5q57 0 83.5 38t26.5 98q0 70 -28.5 103t-84.5 33h-129v180h129zM605 -479h-284v558h284v-558z" />
<glyph unicode="&#x49a;" horiz-adv-x="1137" d="M519 605h-124v-605h-285v1456h285v-592h92l284 592h349l-397 -665l430 -791h-346zM1191 -356h-284v558h284v-558z" />
<glyph unicode="&#x49b;" horiz-adv-x="1013" d="M471 402h-78v-402h-284v1082h284v-409h75l160 409h359l-282 -496l306 -586h-379zM1090 -356h-284v558h284v-558z" />
<glyph unicode="&#x49c;" horiz-adv-x="1179" d="M1173 1456l-319 -648l349 -808h-364l-202 602h-33v-235h-153v235h-58v-602h-284v1456h284v-596h58v261h153v-261h22l194 596h353z" />
<glyph unicode="&#x49d;" horiz-adv-x="1090" d="M1077 1082l-239 -497l246 -585h-363l-107 402h-29v-175h-137v175h-55v-402h-284v1082h284v-409h55v194h137v-194h34l99 409h359z" />
<glyph unicode="&#x49e;" horiz-adv-x="1157" d="M539 605h-124v-605h-285v1143h-186v175h186v138h285v-138h110v-175h-110v-279h92l284 592h349l-397 -665l430 -791h-346z" />
<glyph unicode="&#x49f;" horiz-adv-x="983" d="M448 450h-52v-450h-284v1212h-156v175h156v173h284v-173h141v-175h-141v-538h47l183 408h327l-282 -487l329 -595h-325z" />
<glyph unicode="&#x4a0;" horiz-adv-x="1455" d="M842 605h-124v-605h-285v1228h-404v228h689v-592h92l284 592h349l-397 -665l430 -791h-346z" />
<glyph unicode="&#x4a1;" horiz-adv-x="1280" d="M751 402h-78v-402h-284v854h-331v228h615v-409h75l160 409h359l-282 -496l306 -586h-379z" />
<glyph unicode="&#x4a2;" horiz-adv-x="1241" d="M1131 0h-284v603h-452v-603h-285v1456h285v-626h452v626h284v-1456zM1304 -356h-284v558h284v-558z" />
<glyph unicode="&#x4a3;" horiz-adv-x="998" d="M909 0h-285v420h-252v-420h-284v1082h284v-436h252v436h285v-1082zM1082 -356h-284v558h284v-558z" />
<glyph unicode="&#x4a4;" horiz-adv-x="1718" d="M395 830h452v626h796v-227h-511l-1 1v-1230h-284v603h-452v-603h-285v1456h285v-626z" />
<glyph unicode="&#x4a5;" horiz-adv-x="1232" d="M370 646h252v436h555v-227h-270v-855h-285v420h-252v-420h-284v1082h284v-436z" />
<glyph unicode="&#x4a6;" horiz-adv-x="1840" d="M1134 834h128q238 0 376.5 -148t138.5 -439q0 -241 -114.5 -413.5t-360.5 -168.5l-6 2l-1 205q124 0 161 103.5t37 256.5q0 188 -58.5 280.5t-172.5 92.5h-128v-605h-284v1228h-453v-1228h-285v1456h1022v-622z" />
<glyph unicode="&#x4a7;" horiz-adv-x="1521" d="M909 671h58q233 0 371.5 -123t138.5 -363q3 -131 -79 -264.5t-233 -196.5l-125 185q72 49 112.5 116t41.5 160q-1 128 -59.5 192.5t-167.5 64.5h-58v-442h-285v854h-254v-854h-284v1082h823v-411z" />
<glyph unicode="&#x4a8;" horiz-adv-x="1429" d="M1338 -15q-97 0 -185 17t-166 51q-66 -37 -141.5 -55.5t-157.5 -18.5q-267 0 -435.5 195t-168.5 488v213q0 258 124.5 428.5t321.5 165.5l6 -2l-1 -227q-70 0 -110 -102.5t-40 -260.5v-215q0 -198 81 -322.5t222 -124.5q14 0 28.5 1t31.5 4q-91 97 -139 226.5t-48 280.5 v202q0 234 102.5 390t265.5 156q179 0 290 -165.5t111 -427.5v-176q0 -141 -39 -264.5t-110 -219.5q35 -10 74 -14.5t83 -4.5v-218zM829 725q0 -108 30.5 -200t89.5 -153h6q42 59 66 146t24 188v209q0 174 -29 248.5t-84 67.5h-6q-47 6 -72 -68.5t-25 -232.5v-205z" />
<glyph unicode="&#x4a9;" horiz-adv-x="1162" d="M1107 -27q-88 0 -164.5 13.5t-140.5 37.5q-52 -22 -109 -33.5t-118 -11.5q-224 0 -364 155t-140 391v102q0 205 106 339t273 129l6 -2v-226q-41 -8 -62.5 -71.5t-21.5 -166.5v-104q0 -132 50.5 -216.5t130.5 -76.5l6 3q-38 50 -57.5 126t-19.5 166v157q0 179 82.5 298 t216.5 119q139 0 226.5 -132t87.5 -331v-149q0 -101 -32.5 -188.5t-91.5 -155.5q30 -8 64 -11.5t72 -3.5v-157zM812 505v151q0 90 -17.5 149t-44.5 53h-6q-26 6 -43.5 -48t-17.5 -136v-161q0 -62 15 -116t45 -92h6q29 31 46 83.5t17 116.5z" />
<glyph unicode="&#x4aa;" horiz-adv-x="1088" d="M1023 469l3 -6q2 -240 -114 -362t-342 -122t-361 138.5t-135 392.5v435q0 253 130.5 392.5t349.5 139.5q232 0 350.5 -124t122.5 -367l-3 -6h-274q6 143 -39 206t-157 63q-96 0 -147 -75t-51 -227v-437q0 -154 54.5 -229t159.5 -75q103 0 143.5 59.5t35.5 203.5h274z M686 -472h-284v558h284v-558z" />
<glyph unicode="&#x4ab;" horiz-adv-x="910" d="M487 206q58 0 87.5 43t29.5 124h258l3 -6q3 -170 -104.5 -279t-273.5 -109q-210 0 -322.5 137t-112.5 354v139q0 216 112 354.5t321 138.5q176 0 279.5 -113t100.5 -305l-2 -5h-259q0 88 -29.5 141.5t-89.5 53.5q-85 0 -117 -72t-32 -193v-139q0 -124 32 -194t119 -70z M618 -472h-284v558h284v-558z" />
<glyph unicode="&#x4ac;" horiz-adv-x="994" d="M967 1228h-328v-1228h-284v1228h-326v228h938v-228zM812 -356h-284v558h284v-558z" />
<glyph unicode="&#x4ad;" horiz-adv-x="914" d="M880 856h-283v-856h-286v856h-280v226h849v-226zM769 -356h-284v558h284v-558z" />
<glyph unicode="&#x4ae;" horiz-adv-x="1124" d="M558 832h6l243 624h309l-416 -938v-518h-284v536l-409 920h311z" />
<glyph unicode="&#x4af;" horiz-adv-x="909" d="M597 1082h297l-299 -1079v-419h-284v434l-296 1064h297l127 -674l13 -82h6l14 82z" />
<glyph unicode="&#x4b0;" horiz-adv-x="1124" d="M559 832h6l242 624h309l-338 -762h86v-175h-164v-1v-518h-284v519h-133v175h62l-338 762h311z" />
<glyph unicode="&#x4b1;" horiz-adv-x="909" d="M752 13h-155l-2 -10v-419h-284v429h-140v175h93l-249 894h297l127 -674l13 -82h6l14 82l125 674h297l-248 -894h106v-175z" />
<glyph unicode="&#x4b2;" horiz-adv-x="1127" d="M558 947h6l198 509h329l-353 -722l377 -734h-343l-204 520h-6l-204 -520h-331l362 734l-353 722h327zM1141 -356h-284v558h284v-558z" />
<glyph unicode="&#x4b3;" horiz-adv-x="909" d="M451 741h6l114 341h320l-268 -535l276 -547h-319l-119 351h-6l-119 -351h-320l275 547l-268 535h319zM916 -356h-284v558h284v-558z" />
<glyph unicode="&#x4b4;" horiz-adv-x="1576" d="M308 1228h-272v228h815v-228h-259v-1001h452v1229h285v-1230h177l-19 -577h-264v351h-915v1228z" />
<glyph unicode="&#x4b5;" horiz-adv-x="1221" d="M217 854h-166v228h598v-228h-148v-627h254v855h285v-857h150l-19 -546h-265v321h-689v854z" />
<glyph unicode="&#x4b6;" horiz-adv-x="1232" d="M1121 1456v-1456h-285v562q-53 -13 -117.5 -20.5t-106.5 -7.5q-233 0 -363 118t-130 362v442h283v-442q0 -142 49.5 -197.5t160.5 -55.5q43 0 108 7.5t116 20.5v667h285zM1294 -356h-284v558h284v-558z" />
<glyph unicode="&#x4b7;" horiz-adv-x="985" d="M897 0h-285v342q-26 -6 -50 -8.5t-44 -2.5q-213 0 -327 100.5t-114 314.5v336h283v-336q0 -109 35 -148.5t123 -39.5q23 0 46.5 2.5t47.5 9.5v512h285v-1082zM1070 -356h-284v558h284v-558z" />
<glyph unicode="&#x4b8;" horiz-adv-x="1202" d="M1090 1456v-1456h-285v562q-36 -9 -77 -15v-252h-153v239q-229 1 -357 118q-130 118 -130 362v442h283v-442q0 -142 49 -198q48 -54 155 -55v296h153v-284q42 7 77 16v667h285z" />
<glyph unicode="&#x4b9;" horiz-adv-x="993" d="M905 0h-285v342q-26 -6 -50 -9h-1v-155h-153v160q-135 21 -217 93q-114 101 -114 315v336h283v-336q0 -109 35 -149q6 -6 13 -12v245h153v-270h3q24 3 48 10v512h285v-1082z" />
<glyph unicode="&#x4ba;" horiz-adv-x="1244" d="M107 0v1456h285v-563q51 12 116 20.5t108 8.5q232 0 362.5 -118.5t130.5 -361.5v-442h-283v442q0 141 -50 197t-160 56q-44 0 -109 -8t-115 -20v-667h-285z" />
<glyph unicode="&#x4bb;" d="M368 953q42 71 101 110t130 39q144 0 226 -114.5t82 -353.5v-634h-285v636q0 134 -31.5 186t-98.5 52q-40 0 -71 -17.5t-53 -48.5v-808h-284v1560h284v-607z" />
<glyph unicode="&#x4bc;" horiz-adv-x="1329" d="M824 -23q-279 0 -427 171t-148 455v59q-132 26 -202.5 135t-70.5 284h185q0 -79 22 -132.5t66 -76.5q2 263 149 433t365 170q235 0 360 -181.5t125 -498.5v-156h-715v-36q0 -174 68 -277.5t223 -103.5q95 0 171.5 20t132.5 50l44 -230q-31 -28 -126.5 -56.5t-221.5 -28.5 zM763 1229q-111 0 -170.5 -103t-59.5 -260h430v32q0 152 -46.5 241.5t-153.5 89.5z" />
<glyph unicode="&#x4bd;" horiz-adv-x="1056" d="M642 -21q-204 0 -324 134t-120 338v21q-125 28 -192.5 130t-67.5 262h170q0 -74 23 -124.5t69 -74.5q16 195 125.5 316t292.5 121q190 0 294 -127t104 -346v-174h-535v-4q0 -107 48.5 -176t146.5 -69q80 0 130 18t119 60l72 -181q-56 -54 -149.5 -89t-205.5 -35zM618 874 q-68 0 -100 -62t-36 -167h255v40q0 90 -28 139.5t-91 49.5z" />
<glyph unicode="&#x4be;" horiz-adv-x="1329" d="M824 -23q-279 0 -427 171t-148 455v59q-132 26 -202.5 135t-70.5 284h185q0 -79 22 -132.5t66 -76.5q2 263 149 433t365 170q235 0 360 -181.5t125 -498.5v-156h-715v-36q0 -174 68 -277.5t223 -103.5q95 0 171.5 20t132.5 50l44 -230q-31 -28 -126.5 -56.5t-221.5 -28.5 zM763 1229q-111 0 -170.5 -103t-59.5 -260h430v32q0 152 -46.5 241.5t-153.5 89.5zM946 -473h-284v558h284v-558z" />
<glyph unicode="&#x4bf;" horiz-adv-x="1056" d="M642 -21q-204 0 -324 134t-120 338v21q-125 28 -192.5 130t-67.5 262h170q0 -74 23 -124.5t69 -74.5q16 195 125.5 316t292.5 121q190 0 294 -127t104 -346v-174h-535v-4q0 -107 48.5 -176t146.5 -69q80 0 130 18t119 60l72 -181q-56 -54 -149.5 -89t-205.5 -35zM618 874 q-68 0 -100 -62t-36 -167h255v40q0 90 -28 139.5t-91 49.5zM762 -461h-284v558h284v-558z" />
<glyph unicode="&#x4c0;" horiz-adv-x="534" d="M408 0h-283v1456h283v-1456z" />
<glyph unicode="&#x4c1;" horiz-adv-x="1788" d="M1187 604h-139v-604h-284v604h-144l-245 -604h-354l377 798l-360 658h353l250 -594h123v594h284v-594h119l242 594h352l-352 -655l369 -801h-353zM1214 1897l2 -6q4 -129 -81.5 -209.5t-229.5 -80.5q-146 0 -232 81t-81 209l2 6h207q0 -53 25.5 -87t78.5 -34 q51 0 75.5 34t24.5 87h209z" />
<glyph unicode="&#x4c2;" horiz-adv-x="1544" d="M1016 404h-98v-404h-284v404h-96l-144 -404h-364l273 590l-266 492h360l157 -407h80v407h284v-407h83l156 407h361l-281 -493l287 -589h-364zM1095 1554l2 -6q4 -129 -81.5 -209.5t-229.5 -80.5q-146 0 -232 81t-81 209l2 6h207q0 -53 25.5 -87t78.5 -34q51 0 75.5 34 t24.5 87h209z" />
<glyph unicode="&#x4c3;" horiz-adv-x="1154" d="M718 820q188 -33 294.5 -178.5t106.5 -398.5q0 -242 -114.5 -414.5t-361.5 -168.5l-6 2v206q124 0 161 103.5t37 256.5q0 188 -58.5 280.5t-172.5 92.5h-211v-601h-284v1456h284v-593h71l272 593h353z" />
<glyph unicode="&#x4c4;" horiz-adv-x="1026" d="M702 593q130 -49 203 -160t73 -281q2 -130 -80 -261.5t-233 -195.5l-125 186q71 47 112 113t42 158q0 119 -52 181t-149 69h-100v-402h-284v1082h284v-409h66l168 409h360z" />
<glyph unicode="&#x4c5;" horiz-adv-x="1241" d="M1130 1456v-1456h-283v1228h-305l3 -426q2 -429 -106.5 -615.5t-327.5 -186.5h-68v227h34q114 11 150 127t34 448l-4 654h873zM1369 -35l-145 -311h-166l59 319v231h252v-239z" />
<glyph unicode="&#x4c6;" horiz-adv-x="1000" d="M912 1082v-1082h-284v854h-177v-236q0 -320 -88.5 -469t-302.5 -149h-39l-4 230h25q83 0 103.5 76.5t20.5 311.5v464h746zM1151 -35l-145 -311h-166l59 319v231h252v-239z" />
<glyph unicode="&#x4c7;" horiz-adv-x="1243" d="M395 1456v-626h453v626h283v-1489q0 -193 -90.5 -298.5t-249.5 -105.5q-36 0 -66 4.5t-65 13.5l12 222q22 -6 41 -9t44 -3q43 0 67 45.5t24 130.5v636h-453v-603h-284v1456h284z" />
<glyph unicode="&#x4c8;" d="M371 1082v-436h251v436h285v-1115q0 -193 -90.5 -298.5t-249.5 -105.5q-36 0 -66 4.5t-65 13.5l13 222q21 -6 40 -9t44 -3q42 0 65.5 45.5t23.5 130.5v453h-251v-420h-284v1082h284z" />
<glyph unicode="&#x4c9;" horiz-adv-x="1241" d="M1131 0h-284v603h-452v-603h-285v1456h285v-626h452v626h284v-1456zM1370 -35l-145 -311h-166l59 319v231h252v-239z" />
<glyph unicode="&#x4ca;" horiz-adv-x="998" d="M909 0h-285v420h-252v-420h-284v1082h284v-436h252v436h285v-1082zM1148 -35l-145 -311h-166l59 319v231h252v-239z" />
<glyph unicode="&#x4cb;" horiz-adv-x="1232" d="M1121 1456v-1456h-285v562q-53 -13 -117.5 -20.5t-106.5 -7.5q-233 0 -363 118t-130 362v442h283v-442q0 -142 49.5 -197.5t160.5 -55.5q43 0 108 7.5t116 20.5v667h285zM939 -356h-284v558h284v-558z" />
<glyph unicode="&#x4cc;" horiz-adv-x="985" d="M897 0h-285v342q-26 -6 -50 -8.5t-44 -2.5q-213 0 -327 100.5t-114 314.5v336h283v-336q0 -109 35 -148.5t123 -39.5q23 0 46.5 2.5t47.5 9.5v512h285v-1082zM715 -356h-284v558h284v-558z" />
<glyph unicode="&#x4cd;" horiz-adv-x="1481" d="M474 1456l261 -1069h6l264 1069h371v-1456h-283v423l24 566l-6 1l-278 -990h-189l-275 982l-6 -1l25 -558v-423h-283v1456h369zM1614 -35l-145 -311h-166l59 319v231h252v-239z" />
<glyph unicode="&#x4ce;" horiz-adv-x="1345" d="M659 341h6l203 741h357v-1082h-285v566l-6 1l-176 -567h-190l-169 544l-6 -1v-543h-284v1082h350zM1463 -35l-145 -311h-166l59 319v231h252v-239z" />
<glyph unicode="&#x4cf;" horiz-adv-x="534" d="M408 0h-283v1456h283v-1456z" />
<glyph unicode="&#x4d0;" horiz-adv-x="1134" d="M765 309h-384l-78 -309h-287l410 1456h296l409 -1456h-287zM439 538h268l-131 515h-6zM884 1897l2 -6q4 -129 -81.5 -209.5t-229.5 -80.5q-146 0 -232 81t-81 209l2 6h207q0 -53 25.5 -87t78.5 -34q51 0 75.5 34t24.5 87h209z" />
<glyph unicode="&#x4d1;" horiz-adv-x="944" d="M619 0q-12 27 -21.5 59t-14.5 65q-40 -66 -97.5 -105.5t-133.5 -39.5q-134 0 -214.5 88t-80.5 235q0 159 102.5 247t304.5 88h107v88q0 79 -28.5 121.5t-85.5 42.5q-48 0 -72 -34t-24 -99l-275 1l-3 6q-5 141 104.5 240t288.5 99q169 0 274.5 -98.5t105.5 -280.5v-438 q0 -80 11 -149t34 -136h-282zM434 193q43 0 79.5 23t57.5 59v199h-107q-65 0 -94 -45t-29 -114q0 -54 25 -88t68 -34zM777 1575l2 -6q4 -129 -81.5 -209.5t-229.5 -80.5q-146 0 -232 81t-81 209l2 6h207q0 -53 25.5 -87t78.5 -34q51 0 75.5 34t24.5 87h209z" />
<glyph unicode="&#x4d2;" horiz-adv-x="1134" d="M765 309h-384l-78 -309h-287l410 1456h296l409 -1456h-287zM439 538h268l-131 515h-6zM923 1606h-250v198h250v-198zM475 1606h-251v198h251v-198z" />
<glyph unicode="&#x4d3;" horiz-adv-x="944" d="M619 0q-12 27 -21.5 59t-14.5 65q-40 -66 -97.5 -105.5t-133.5 -39.5q-134 0 -214.5 88t-80.5 235q0 159 102.5 247t304.5 88h107v88q0 79 -28.5 121.5t-85.5 42.5q-48 0 -72 -34t-24 -99l-275 1l-3 6q-5 141 104.5 240t288.5 99q169 0 274.5 -98.5t105.5 -280.5v-438 q0 -80 11 -149t34 -136h-282zM434 193q43 0 79.5 23t57.5 59v199h-107q-65 0 -94 -45t-29 -114q0 -54 25 -88t68 -34zM818 1284h-250v198h250v-198zM370 1284h-251v198h251v-198z" />
<glyph unicode="&#x4d4;" horiz-adv-x="1656" d="M1591 0h-774l-12 339h-329l-136 -339h-331l639 1456h891v-231h-481l12 -363h400v-230h-392l15 -402h498v-230zM573 578h224l-17 497l-6 1z" />
<glyph unicode="&#x4d5;" horiz-adv-x="1479" d="M1057 -21q-108 0 -192 38t-142 110q-52 -65 -135.5 -106.5t-196.5 -41.5q-168 0 -259 90.5t-91 247.5q0 159 110.5 245.5t322.5 86.5h136v56q0 79 -30 124t-83 45q-57 0 -89.5 -37t-32.5 -92l-275 17l-2 6q-5 145 106.5 239.5t295.5 94.5q83 0 153 -23.5t121 -68.5 q51 44 118 68t149 24q181 0 285 -131t104 -356v-160h-535q5 -117 51.5 -183t144.5 -66q77 0 127.5 18.5t115.5 59.5l71 -183q-53 -49 -147.5 -85.5t-200.5 -36.5zM446 184q41 0 88 27t76 65v190h-134q-71 0 -111.5 -44.5t-40.5 -108.5q0 -61 30 -95t92 -34zM1041 874 q-73 0 -106 -60t-39 -170h257v27q0 94 -28 148.5t-84 54.5z" />
<glyph unicode="&#x4d6;" horiz-adv-x="1008" d="M884 639h-489v-412h575v-227h-860v1456h858v-228h-573v-362h489v-227zM824 1897l2 -6q4 -129 -81.5 -209.5t-229.5 -80.5q-146 0 -232 81t-81 209l2 6h207q0 -53 25.5 -87t78.5 -34q51 0 75.5 34t24.5 87h209z" />
<glyph unicode="&#x4d7;" horiz-adv-x="938" d="M513 -21q-204 0 -324 134t-120 338v152q0 219 111.5 359t308.5 140q190 0 294 -127t104 -346v-174h-535v-4q0 -107 48.5 -176t146.5 -69q80 0 130 18t119 60l72 -181q-56 -54 -149.5 -89t-205.5 -35zM489 874q-68 0 -100 -62t-36 -167h255v40q0 90 -28 139.5t-91 49.5z M776 1576l2 -6q4 -129 -81.5 -209.5t-229.5 -80.5q-146 0 -232 81t-81 209l2 6h207q0 -53 25.5 -87t78.5 -34q51 0 75.5 34t24.5 87h209z" />
<glyph unicode="&#x4d8;" horiz-adv-x="1218" d="M521 1477q295 0 453 -183t158 -485v-163q0 -292 -153 -479.5t-379 -187.5q-261 0 -399 180.5t-138 498.5v157h786q-2 188 -79 302t-249 114q-101 0 -182.5 -20.5t-139.5 -49.5l-43 230q33 27 133 56.5t232 29.5zM600 224q109 0 172.5 101t74.5 264h-500v-34 q0 -152 59 -241.5t194 -89.5z" />
<glyph unicode="&#x4d9;" horiz-adv-x="938" d="M442 1103q204 0 324.5 -149.5t120.5 -378.5v-41q0 -245 -112 -399.5t-309 -153.5q-191 0 -294 129.5t-103 355.5v161h531q-10 111 -58 180t-134 69q-81 0 -131 -18.5t-118 -59.5l-73 181q56 52 150 88t206 36zM466 207q60 0 91.5 61t40.5 169h-251v-27q0 -97 28 -150 t91 -53z" />
<glyph unicode="&#x4da;" horiz-adv-x="1218" d="M521 1477q295 0 453 -183t158 -485v-163q0 -292 -153 -479.5t-379 -187.5q-261 0 -399 180.5t-138 498.5v157h786q-2 188 -79 302t-249 114q-101 0 -182.5 -20.5t-139.5 -49.5l-43 230q33 27 133 56.5t232 29.5zM600 224q109 0 172.5 101t74.5 264h-500v-34 q0 -152 59 -241.5t194 -89.5zM913 1627h-250v198h250v-198zM465 1627h-251v198h251v-198z" />
<glyph unicode="&#x4db;" horiz-adv-x="938" d="M442 1103q204 0 324.5 -149.5t120.5 -378.5v-41q0 -245 -112 -399.5t-309 -153.5q-191 0 -294 129.5t-103 355.5v161h531q-10 111 -58 180t-134 69q-81 0 -131 -18.5t-118 -59.5l-73 181q56 52 150 88t206 36zM466 207q60 0 91.5 61t40.5 169h-251v-27q0 -97 28 -150 t91 -53zM820 1284h-250v198h250v-198zM372 1284h-251v198h251v-198z" />
<glyph unicode="&#x4dc;" horiz-adv-x="1788" d="M1187 604h-139v-604h-284v604h-144l-245 -604h-354l377 798l-360 658h353l250 -594h123v594h284v-594h119l242 594h352l-352 -655l369 -801h-353zM1253 1606h-250v198h250v-198zM805 1606h-251v198h251v-198z" />
<glyph unicode="&#x4dd;" horiz-adv-x="1544" d="M1016 404h-98v-404h-284v404h-96l-144 -404h-364l273 590l-266 492h360l157 -407h80v407h284v-407h83l156 407h361l-281 -493l287 -589h-364zM1134 1263h-250v198h250v-198zM686 1263h-251v198h251v-198z" />
<glyph unicode="&#x4de;" horiz-adv-x="1092" d="M988 1062q0 -101 -51.5 -184t-141.5 -131q102 -42 157 -129t55 -212q0 -200 -133 -313.5t-347 -113.5q-189 0 -326.5 107t-132.5 312l2 6h276q0 -85 50.5 -141.5t130.5 -56.5q90 0 142.5 57t52.5 147q0 116 -45 169t-134 53h-152v221h152q82 0 121.5 53.5t39.5 151.5 q0 83 -45.5 137t-131.5 54q-72 0 -118 -51t-46 -135h-276l-2 6q-5 182 124.5 295t317.5 113q213 0 337 -108t124 -307zM890 1627h-250v198h250v-198zM442 1627h-251v198h251v-198z" />
<glyph unicode="&#x4df;" horiz-adv-x="910" d="M462 643q49 0 72.5 32t23.5 89q0 55 -21 90t-73 35q-50 0 -78.5 -31t-28.5 -86h-275l-3 6q-5 145 101.5 233.5t267.5 88.5q182 0 287.5 -81.5t105.5 -231.5q0 -73 -38 -134t-105 -96q78 -32 119 -96.5t41 -156.5q0 -151 -113.5 -237t-296.5 -86q-159 0 -273.5 85 t-109.5 246l3 6h275q0 -56 30 -91.5t92 -35.5q57 0 83.5 38t26.5 98q0 70 -28.5 103t-84.5 33h-129v180h129zM815 1283h-250v198h250v-198zM367 1283h-251v198h251v-198z" />
<glyph unicode="&#x4e0;" horiz-adv-x="1019" d="M948 1456l1 -188l-308 -403q160 -34 247 -151.5t87 -307.5q0 -200 -129 -313.5t-336 -113.5q-181 0 -310 107t-124 312l2 6h277q0 -87 41.5 -142.5t113.5 -55.5q83 0 132 57t49 147q0 146 -55.5 212.5t-165.5 66.5h-116v178l269 361h-494v228h819z" />
<glyph unicode="&#x4e1;" horiz-adv-x="1019" d="M620 854h-499v228h827l1 -189l-305 -402q159 -34 245 -152t86 -308q0 -198 -129 -312t-336 -114q-180 0 -309.5 107.5t-124.5 310.5l2 6h277q0 -84 41.5 -140t113.5 -56q83 0 132 57.5t49 145.5q0 147 -54 213t-164 66h-119v177z" />
<glyph unicode="&#x4e2;" horiz-adv-x="1226" d="M834 1456h284v-1456h-284v904l-6 1l-445 -905h-284v1456h284v-904l6 -1zM937 1617h-654v160h654v-160z" />
<glyph unicode="&#x4e3;" horiz-adv-x="998" d="M627 1082h284v-1082h-284v592l-6 1l-248 -593h-285v1082h285v-590l6 -1zM828 1276h-654v160h654v-160z" />
<glyph unicode="&#x4e4;" horiz-adv-x="1226" d="M834 1456h284v-1456h-284v904l-6 1l-445 -905h-284v1456h284v-904l6 -1zM958 1606h-250v198h250v-198zM510 1606h-251v198h251v-198z" />
<glyph unicode="&#x4e5;" horiz-adv-x="998" d="M627 1082h284v-1082h-284v592l-6 1l-248 -593h-285v1082h285v-590l6 -1zM849 1263h-250v198h250v-198zM401 1263h-251v198h251v-198z" />
<glyph unicode="&#x4e6;" horiz-adv-x="1166" d="M1091 523q0 -256 -139 -400t-370 -144t-369 144t-138 400v408q0 255 138 400.5t368 145.5t370 -145.5t140 -400.5v-408zM808 933q0 156 -58 235.5t-169 79.5q-112 0 -168 -79t-56 -236v-410q0 -158 57 -237t168 -79q110 0 168 79t58 237v410zM933 1627h-250v198h250v-198 zM485 1627h-251v198h251v-198z" />
<glyph unicode="&#x4e7;" d="M58 607q0 218 115.5 356.5t323.5 138.5t324 -138.5t116 -356.5v-134q0 -220 -116 -357t-323 -137q-209 0 -324.5 137t-115.5 357v134zM341 473q0 -125 35 -196t122 -71q84 0 119.5 71.5t35.5 195.5v134q0 122 -35.5 194.5t-120.5 72.5t-120.5 -73t-35.5 -194v-134z M845 1284h-250v198h250v-198zM397 1284h-251v198h251v-198z" />
<glyph unicode="&#x4e8;" horiz-adv-x="1215" d="M1097 523q0 -256 -139 -400t-370 -144t-369 144t-138 400v408q0 255 138 400.5t368 145.5t370 -145.5t140 -400.5v-408zM814 645h-451v-122q0 -158 57 -237t168 -79q110 0 168 79t58 237v122zM363 820h451v113q0 156 -58 235.5t-169 79.5q-112 0 -168 -79t-56 -236v-113z " />
<glyph unicode="&#x4e9;" horiz-adv-x="994" d="M56 607q0 218 115.5 356.5t323.5 138.5t324 -138.5t116 -356.5v-134q0 -220 -116 -357t-323 -137q-209 0 -324.5 137t-115.5 357v134zM495 874q-82 0 -118 -67.5t-38 -181.5h312q-3 114 -39 181.5t-117 67.5zM496 206q79 0 114.5 64.5t39.5 178.5h-311q3 -115 38.5 -179 t118.5 -64z" />
<glyph unicode="&#x4ea;" horiz-adv-x="1215" d="M1097 523q0 -256 -139 -400t-370 -144t-369 144t-138 400v408q0 255 138 400.5t368 145.5t370 -145.5t140 -400.5v-408zM814 645h-451v-122q0 -158 57 -237t168 -79q110 0 168 79t58 237v122zM363 820h451v113q0 156 -58 235.5t-169 79.5q-112 0 -168 -79t-56 -236v-113z M977 1601h-250v198h250v-198zM529 1601h-251v198h251v-198z" />
<glyph unicode="&#x4eb;" horiz-adv-x="994" d="M56 607q0 218 115.5 356.5t323.5 138.5t324 -138.5t116 -356.5v-134q0 -220 -116 -357t-323 -137q-209 0 -324.5 137t-115.5 357v134zM495 874q-82 0 -118 -67.5t-38 -181.5h312q-3 114 -39 181.5t-117 67.5zM496 206q79 0 114.5 64.5t39.5 178.5h-311q3 -115 38.5 -179 t118.5 -64zM833 1312h-250v198h250v-198zM385 1312h-251v198h251v-198z" />
<glyph unicode="&#x4ec;" horiz-adv-x="1087" d="M69 973l-3 6q-4 239 118.5 369t346.5 130q216 0 344 -167.5t128 -436.5v-291q0 -270 -127.5 -436.5t-344.5 -166.5q-225 0 -348 127.5t-119 368.5l3 6h276q0 -144 44 -209.5t144 -65.5q96 0 141.5 100.5t45.5 273.5v40h-365v228h365v25q0 173 -46 274.5t-141 101.5 q-99 0 -143 -66.5t-44 -210.5h-275zM889 1628h-250v198h250v-198zM441 1628h-251v198h251v-198z" />
<glyph unicode="&#x4ed;" horiz-adv-x="907" d="M432 874q-59 0 -87.5 -43t-28.5 -123h-259l-3 6q-4 168 104 278t274 110q206 0 319 -153.5t113 -394.5v-28q0 -242 -113 -394.5t-318 -152.5q-175 0 -279 112.5t-100 305.5l2 5h260q0 -89 29 -142.5t88 -53.5q72 0 105 67.5t39 185.5h-201v169h201q-7 115 -40 180.5 t-105 65.5zM808 1284h-250v198h250v-198zM360 1284h-251v198h251v-198z" />
<glyph unicode="&#x4ee;" horiz-adv-x="1111" d="M569 795l3 -14h6l209 675h297l-408 -1173q-59 -145 -134 -224.5t-212 -79.5q-20 0 -47 1.5t-43 2.5l-5 227q8 -2 29 -3t36 -1q66 0 98 35.5t51 109.5l14 49h-1l-430 1056h304zM883 1617h-654v160h654v-160z" />
<glyph unicode="&#x4ef;" horiz-adv-x="909" d="M440 444l2 -11l158 649h304l-365 -1245q-41 -117 -109.5 -195.5t-209.5 -78.5q-35 0 -62 6t-72 18l33 212q17 -3 24.5 -4.5t16.5 -1.5q62 0 93.5 32.5t45.5 85.5l25 80l-319 1091h305zM782 1276h-654v160h654v-160z" />
<glyph unicode="&#x4f0;" horiz-adv-x="1111" d="M569 795l3 -14h6l209 675h297l-408 -1173q-59 -145 -134 -224.5t-212 -79.5q-20 0 -47 1.5t-43 2.5l-5 227q8 -2 29 -3t36 -1q66 0 98 35.5t51 109.5l14 49h-1l-430 1056h304zM904 1606h-250v198h250v-198zM456 1606h-251v198h251v-198z" />
<glyph unicode="&#x4f1;" horiz-adv-x="909" d="M440 444l2 -11l158 649h304l-365 -1245q-41 -117 -109.5 -195.5t-209.5 -78.5q-35 0 -62 6t-72 18l33 212q17 -3 24.5 -4.5t16.5 -1.5q62 0 93.5 32.5t45.5 85.5l25 80l-319 1091h305zM803 1263h-250v198h250v-198zM355 1263h-251v198h251v-198z" />
<glyph unicode="&#x4f2;" horiz-adv-x="1111" d="M569 795l3 -14h6l209 675h297l-408 -1173q-59 -145 -134 -224.5t-212 -79.5q-20 0 -47 1.5t-43 2.5l-5 227q8 -2 29 -3t36 -1q66 0 98 35.5t51 109.5l14 49h-1l-430 1056h304zM782 1867h264l2 -5l-238 -261h-230zM434 1867h268l-207 -266h-227z" />
<glyph unicode="&#x4f3;" horiz-adv-x="909" d="M440 444l2 -11l158 649h304l-365 -1245q-41 -117 -109.5 -195.5t-209.5 -78.5q-35 0 -62 6t-72 18l33 212q17 -3 24.5 -4.5t16.5 -1.5q62 0 93.5 32.5t45.5 85.5l25 80l-319 1091h305zM679 1524h264l2 -5l-238 -261h-230zM331 1524h268l-207 -266h-227z" />
<glyph unicode="&#x4f4;" horiz-adv-x="1232" d="M1121 1456v-1456h-285v562q-53 -13 -117.5 -20.5t-106.5 -7.5q-233 0 -363 118t-130 362v442h283v-442q0 -142 49.5 -197.5t160.5 -55.5q43 0 108 7.5t116 20.5v667h285zM1016 1606h-250v198h250v-198zM568 1606h-251v198h251v-198z" />
<glyph unicode="&#x4f5;" horiz-adv-x="985" d="M897 0h-285v342q-26 -6 -50 -8.5t-44 -2.5q-213 0 -327 100.5t-114 314.5v336h283v-336q0 -109 35 -148.5t123 -39.5q23 0 46.5 2.5t47.5 9.5v512h285v-1082zM838 1263h-250v198h250v-198zM390 1263h-251v198h251v-198z" />
<glyph unicode="&#x4f6;" horiz-adv-x="983" d="M931 1228h-535v-1228h-285v1456h820v-228zM568 -356h-284v558h284v-558z" />
<glyph unicode="&#x4f7;" horiz-adv-x="741" d="M729 854h-357v-854h-284v1082h641v-228zM503 -356h-284v558h284v-558z" />
<glyph unicode="&#x4f8;" horiz-adv-x="1540" d="M395 920h184q219 0 349 -124.5t130 -330.5q0 -209 -130.5 -337t-348.5 -128h-467v1456h283v-536zM395 693v-466h184q92 0 143.5 68t51.5 172q0 99 -51.5 162.5t-143.5 63.5h-184zM1428 0h-283v1456h283v-1456zM1114 1606h-250v198h250v-198zM666 1606h-251v198h251v-198z " />
<glyph unicode="&#x4f9;" horiz-adv-x="1489" d="M394 763h147q193 0 303.5 -105.5t110.5 -278.5q0 -170 -111 -274.5t-303 -104.5h-432v1082h285v-319zM394 537v-312h147q66 0 98.5 43t32.5 111q0 70 -32.5 114t-98.5 44h-147zM1369 0h-285v1082h285v-1082zM1084 1263h-250v198h250v-198zM636 1263h-251v198h251v-198z " />
<glyph unicode="&#x4fa;" horiz-adv-x="1071" d="M1017 1228h-535v-1228h-285v1456h820v-228zM637 671h-581v175h581v-175zM748 258v-291q0 -194 -90 -299t-250 -105q-35 0 -64 4.5t-64 13.5l12 224q23 -6 41.5 -9.5t40.5 -3.5q43 0 66 44.5t23 130.5v291h285z" />
<glyph unicode="&#x4fb;" horiz-adv-x="752" d="M804 854h-357v-854h-284v1082h641v-228zM619 494h-581v175h581v-175zM674 252v-291q0 -194 -90 -299t-250 -105q-35 0 -64 4.5t-64 13.5l12 224q23 -6 41.5 -9.5t40.5 -3.5q43 0 66 44.5t23 130.5v291h285z" />
<glyph unicode="&#x4fc;" horiz-adv-x="1127" d="M558 947h6l198 509h329l-353 -722l377 -734h-343l-204 520h-6l-204 -520h-331l362 734l-353 722h327zM1252 258v-291q0 -194 -90 -299t-250 -105q-35 0 -64 4.5t-64 13.5l12 224q23 -6 41.5 -9.5t40.5 -3.5q43 0 66 44.5t23 130.5v291h285z" />
<glyph unicode="&#x4fd;" horiz-adv-x="909" d="M451 741h6l114 341h320l-268 -535l276 -547h-319l-119 351h-6l-119 -351h-320l275 547l-268 535h319zM1027 258v-291q0 -194 -90 -299t-250 -105q-35 0 -64 4.5t-64 13.5l12 224q23 -6 41.5 -9.5t40.5 -3.5q43 0 66 44.5t23 130.5v291h285z" />
<glyph unicode="&#x4fe;" horiz-adv-x="1127" d="M859 659h-83l339 -659h-343l-204 520h-6l-204 -520h-331l325 659h-74v175h62l-304 622h327l195 -509h6l198 509h329l-304 -622h72v-175z" />
<glyph unicode="&#x4ff;" horiz-adv-x="909" d="M753 468h-90l236 -468h-319l-119 351h-6l-119 -351h-320l235 468h-79v175h71l-220 439h319l109 -341h6l114 341h320l-220 -439h82v-175z" />
<glyph unicode="&#x500;" horiz-adv-x="1120" d="M734 948v508h283v-1456h-468q-217 0 -347.5 133t-130.5 342q0 208 130.5 340.5t347.5 132.5h185zM734 227v494h-185q-92 0 -142.5 -71t-50.5 -173q0 -106 50 -178t143 -72h185z" />
<glyph unicode="&#x501;" d="M54 535q0 255 94 411t265 156q63 0 114 -30t91 -86v574h284v-1560h-247l-19 118q-42 -68 -97.5 -103.5t-126.5 -35.5q-171 0 -264.5 146.5t-93.5 388.5v21zM338 514q0 -145 33.5 -226t113.5 -81q44 0 77 20.5t56 59.5v492q-23 45 -56 70t-75 25q-79 0 -114 -93t-35 -246 v-21z" />
<glyph unicode="&#x502;" horiz-adv-x="1634" d="M591 0q-217 0 -348 132.5t-131 342.5q0 208 130.5 340.5t348.5 132.5h185v508h283v-1229h48q70 1 108.5 52t41.5 142q1 76 -12 159.5t-38 164.5h278q28 -105 43 -178.5t13 -145.5q-3 -203 -128.5 -312t-305.5 -109h-516zM776 227v494h-185q-93 0 -143.5 -71.5 t-50.5 -172.5q0 -105 50.5 -177.5t143.5 -72.5h185z" />
<glyph unicode="&#x503;" horiz-adv-x="1491" d="M80 535q0 255 93.5 411t264.5 156q57 0 104.5 -25.5t85.5 -71.5v555h284v-1184q-1 -76 21.5 -121.5t62.5 -45.5q70 1 108.5 85.5t42.5 234.5q1 98 -12 199t-38 203l277 1q28 -124 43 -217.5t14 -185.5q-3 -265 -128 -407.5t-307 -142.5q-115 -1 -194.5 39.5t-122.5 129.5 q-43 -82 -103 -125.5t-139 -43.5q-171 0 -264 146.5t-93 388.5v21zM628 807q-23 32 -52 49.5t-63 17.5q-79 0 -114 -92.5t-35 -246.5v-21q0 -145 33.5 -226t113.5 -81q40 0 72 18.5t55 53.5q-5 24 -7.5 48t-2.5 49v431z" />
<glyph unicode="&#x504;" horiz-adv-x="1381" d="M540 386q0 97 -43 157.5t-113 60.5h-212v230h158q111 0 158.5 51.5t47.5 160.5q0 86 -44 132.5t-139 46.5h-287v231h287q226 0 346 -105.5t120 -306.5q0 -117 -62.5 -202t-180.5 -133q132 -33 190.5 -115.5t58.5 -205.5v-69q-1 -49 11 -79t33 -24h6q64 -4 101 80.5 t41 232.5q0 99 -13 200.5t-39 202.5h279q30 -140 44 -226.5t13 -176.5q-4 -263 -132.5 -406.5t-313.5 -143.5q-146 -3 -226.5 79t-88.5 261v67z" />
<glyph unicode="&#x505;" horiz-adv-x="1128" d="M694 260q-1 -49 8.5 -75.5t31.5 -20.5h6q41 -4 66 64t29 191q1 76 -12 158.5t-37 160.5h276q28 -100 43.5 -174t13.5 -145q-3 -215 -107 -330t-258 -115q-169 -3 -252 53.5t-93 186.5v75q0 50 -16 77.5t-46 27.5h-228l-2 214h151q56 0 81 29.5t25 84.5q0 60 -24.5 96 t-77.5 36h-222l-5 228h227q184 0 285 -85t101 -237q0 -78 -34 -134.5t-100 -92.5q90 -25 130 -83.5t40 -143.5v-46z" />
<glyph unicode="&#x506;" horiz-adv-x="1060" d="M1010 3l-145 -311h-166l57 308h-190q-35 32 -44 104.5t-9 146.5v99q0 110 -44.5 170t-128.5 60h-238l-1 227h225q85 0 130.5 53t45.5 151q0 100 -44.5 159t-130.5 59h-263l-7 227h270q214 0 336.5 -114t122.5 -316q0 -113 -51 -195.5t-149 -131.5q112 -38 161.5 -127 t49.5 -220v-103v-7h213v-239z" />
<glyph unicode="&#x507;" horiz-adv-x="1018" d="M982 -7l-145 -311h-166l59 318h-209q-13 17 -16 64.5t-3 92.5v71q0 79 -35.5 119.5t-105.5 40.5h-222l-2 194h223q58 0 91.5 35t33.5 96t-34 102.5t-91 41.5h-251l-10 225h261q186 0 298.5 -94t112.5 -253q0 -80 -35.5 -142t-103.5 -103q81 -34 117 -101q36 -65 37 -157 h196v-239z" />
<glyph unicode="&#x508;" horiz-adv-x="1688" d="M1128 1456v-1080q-1 -76 21 -121.5t62 -45.5q70 1 109 85.5t43 234.5q1 97 -12 198t-39 204l279 1q28 -127 42.5 -219.5t13.5 -183.5q-3 -265 -128 -407.5t-308 -142.5q-171 -3 -264.5 93t-102.5 304v849h-282v-457q0 -398 -105 -583t-350 -185h-45v230h35 q95 0 137.5 125.5t42.5 412.5v688h851z" />
<glyph unicode="&#x509;" horiz-adv-x="1507" d="M925 1082v-706q-1 -76 26 -121.5t76 -45.5q51 1 80 73.5t32 201.5q1 92 -12 188t-38 193h277q29 -127 44 -211.5t14 -169.5q-4 -244 -118 -374.5t-279 -130.5q-179 -3 -277.5 93t-108.5 304v474h-129v-228q0 -318 -89 -470t-298 -152h-66l4 243l35 1q70 0 100.5 88.5 t30.5 289.5v460h696z" />
<glyph unicode="&#x50a;" horiz-adv-x="1747" d="M1137 1456v-1080q-1 -76 21.5 -121.5t62.5 -45.5q70 1 109 85.5t43 234.5q1 97 -12 198t-39 204l278 1q29 -127 44 -219.5t13 -183.5q-4 -265 -129 -407.5t-307 -142.5q-171 -3 -264.5 93t-103.5 304v227h-461v-603h-284v1456h284v-626h461v626h284z" />
<glyph unicode="&#x50b;" horiz-adv-x="1444" d="M620 430h-264v-430h-285v1082h285v-423h264v423h285v-706q-2 -76 25 -121.5t75 -45.5q53 1 82 73.5t32 201.5q1 92 -12 188.5t-39 192.5h278q30 -132 44 -214t13 -167q-4 -244 -117.5 -374.5t-280.5 -130.5q-179 -3 -277 93t-108 304v54z" />
<glyph unicode="&#x50c;" horiz-adv-x="1119" d="M602 -21q-242 0 -393.5 174.5t-151.5 443.5v262q0 268 151.5 443t393.5 175q97 0 173 -22.5t135 -65.5l-57 -211q-57 33 -118.5 50.5t-132.5 17.5q-119 0 -189.5 -111t-70.5 -274v-264q0 -166 70.5 -277t189.5 -111q84 1 129.5 61.5t49.5 169.5q0 79 -11.5 165.5 t-31.5 180.5h277q32 -168 41 -219.5t8 -126.5q-3 -224 -135 -342.5t-327 -118.5z" />
<glyph unicode="&#x50d;" horiz-adv-x="942" d="M531 209q44 1 61.5 31t19.5 91q0 50 -4 103.5t-11 102.5h277q11 -62 17 -112t6 -94q-3 -173 -103.5 -262.5t-262.5 -89.5q-221 0 -347.5 156.5t-126.5 384.5v42q0 226 122 383t334 157q79 0 140.5 -17.5t101.5 -48.5l-42 -222q-39 27 -90 42t-110 15q-85 0 -128.5 -92.5 t-43.5 -216.5v-42q0 -127 47 -219t143 -92z" />
<glyph unicode="&#x50e;" horiz-adv-x="1238" d="M384 1225h-350v231h975v-231h-341v-849q-1 -76 21 -121.5t62 -45.5q71 1 110 86t42 234q1 97 -12 198t-38 204l277 1q28 -121 43.5 -216t13.5 -187q-4 -265 -129 -407.5t-307 -142.5q-171 -3 -264.5 93t-102.5 304v849z" />
<glyph unicode="&#x50f;" horiz-adv-x="1118" d="M292 853h-229v229h767v-229h-255v-477q-1 -76 26 -121.5t74 -45.5q52 1 81.5 58t32.5 159q1 70 -12.5 145.5t-38.5 147.5h278q29 -96 44 -162t14 -131q-5 -216 -119 -331.5t-280 -115.5q-179 -3 -276.5 93t-106.5 304v477z" />
<glyph unicode="&#x510;" horiz-adv-x="1150" d="M92 406q0 125 58.5 212t169.5 129q-98 48 -153.5 131t-55.5 184q0 199 133 307t362 108q195 0 329.5 -113t130.5 -295l-2 -6h-276q0 84 -52 135t-130 51q-104 0 -157.5 -54t-53.5 -137q0 -98 47 -151.5t147 -53.5h171v-221h-171q-107 0 -159.5 -53t-52.5 -169 q0 -90 61 -147t168 -57q86 0 142.5 56.5t56.5 141.5h276l2 -6q4 -205 -139 -312t-338 -107q-230 0 -372 113.5t-142 313.5z" />
<glyph unicode="&#x511;" horiz-adv-x="988" d="M85 304q0 91 46 155.5t132 96.5q-76 36 -119 97t-43 134q0 149 116 231t308 82q167 0 279.5 -88.5t107.5 -233.5l-2 -6h-276q0 55 -34.5 86t-90.5 31q-63 0 -93.5 -37t-30.5 -88q0 -55 33.5 -86.5t93.5 -31.5h156v-186h-156q-67 0 -105 -32.5t-38 -100.5 q0 -57 35.5 -96.5t103.5 -39.5q69 0 105.5 35.5t36.5 91.5h275l2 -6q4 -160 -116.5 -245.5t-285.5 -85.5q-192 0 -316 86.5t-124 236.5z" />
<glyph unicode="&#x512;" horiz-adv-x="1241" d="M1130 1456v-1456h-283v1228h-305l3 -426q2 -429 -106.5 -615.5t-327.5 -186.5h-68v227h34q114 11 150 127t34 448l-4 654h873zM1414 258v-291q0 -194 -90 -299t-250 -105q-35 0 -64 4.5t-64 13.5l12 224q23 -6 41.5 -9.5t40.5 -3.5q43 0 66 44.5t23 130.5v291h285z" />
<glyph unicode="&#x513;" horiz-adv-x="1000" d="M912 1082v-1082h-284v854h-177v-236q0 -320 -88.5 -469t-302.5 -149h-39l-4 230h25q83 0 103.5 76.5t20.5 311.5v464h746zM1196 258v-291q0 -194 -90 -299t-250 -105q-35 0 -64 4.5t-64 13.5l12 224q23 -6 41.5 -9.5t40.5 -3.5q43 0 66 44.5t23 130.5v291h285z" />
<glyph unicode="&#x1e00;" horiz-adv-x="1134" d="M765 309h-384l-78 -309h-287l410 1456h296l409 -1456h-287zM439 538h268l-131 515h-6zM407 -226q0 71 47 118t117 47q68 0 114.5 -47t46.5 -118q0 -70 -46.5 -116t-114.5 -46q-70 0 -117 46.5t-47 115.5zM512 -226q0 -29 16.5 -48.5t42.5 -19.5q24 0 39.5 19t15.5 49 q0 32 -15.5 51.5t-39.5 19.5q-26 0 -42.5 -19.5t-16.5 -51.5z" />
<glyph unicode="&#x1e01;" horiz-adv-x="944" d="M619 0q-12 27 -21.5 59t-14.5 65q-40 -66 -97.5 -105.5t-133.5 -39.5q-134 0 -214.5 88t-80.5 235q0 159 102.5 247t304.5 88h107v88q0 79 -28.5 121.5t-85.5 42.5q-48 0 -72 -34t-24 -99l-275 1l-3 6q-5 141 104.5 240t288.5 99q169 0 274.5 -98.5t105.5 -280.5v-438 q0 -80 11 -149t34 -136h-282zM434 193q43 0 79.5 23t57.5 59v199h-107q-65 0 -94 -45t-29 -114q0 -54 25 -88t68 -34zM236 -210q0 71 47 118t117 47q68 0 114.5 -47t46.5 -118q0 -70 -46.5 -116t-114.5 -46q-70 0 -117 46.5t-47 115.5zM341 -210q0 -29 16.5 -48.5 t42.5 -19.5q24 0 39.5 19t15.5 49q0 32 -15.5 51.5t-39.5 19.5q-26 0 -42.5 -19.5t-16.5 -51.5z" />
<glyph unicode="&#x1e3e;" horiz-adv-x="1481" d="M474 1456l261 -1069h6l264 1069h371v-1456h-283v423l24 566l-6 1l-278 -990h-189l-275 982l-6 -1l25 -558v-423h-283v1456h369zM770 1826h299l3 -6l-249 -260h-229z" />
<glyph unicode="&#x1e3f;" horiz-adv-x="1507" d="M358 1082l11 -138q43 76 108 117t149 41q82 0 143 -43.5t93 -132.5q42 84 108 130t154 46q134 0 211.5 -110.5t77.5 -337.5v-654h-285v654q0 125 -27 172.5t-84 47.5q-41 0 -73 -24t-53 -66q1 -19 2 -37.5t1 -38.5v-708h-283v654q0 124 -27.5 172t-85.5 48 q-39 0 -69.5 -19.5t-52.5 -54.5v-800h-283v1082h265zM805 1504h299l3 -6l-249 -260h-229z" />
<glyph unicode="&#x1e80;" horiz-adv-x="1548" d="M1087 527h6l157 929h276l-281 -1456h-265l-205 892h-6l-203 -892h-264l-281 1456h276l157 -929h6l210 929h204zM919 1559h-230l-246 260l3 6h298z" />
<glyph unicode="&#x1e81;" horiz-adv-x="1280" d="M882 468l6 1l101 613h263l-222 -1082h-237l-151 583h-6l-151 -583h-237l-224 1082h265l101 -616h6l151 616h184zM784 1216h-230l-246 260l3 6h298z" />
<glyph unicode="&#x1e82;" horiz-adv-x="1548" d="M1087 527h6l157 929h276l-281 -1456h-265l-205 892h-6l-203 -892h-264l-281 1456h276l157 -929h6l210 929h204zM805 1826h299l3 -6l-249 -260h-229z" />
<glyph unicode="&#x1e83;" horiz-adv-x="1280" d="M882 468l6 1l101 613h263l-222 -1082h-237l-151 583h-6l-151 -583h-237l-224 1082h265l101 -616h6l151 616h184zM670 1483h299l3 -6l-249 -260h-229z" />
<glyph unicode="&#x1e84;" horiz-adv-x="1548" d="M1087 527h6l157 929h276l-281 -1456h-265l-205 892h-6l-203 -892h-264l-281 1456h276l157 -929h6l210 929h204zM1123 1606h-250v198h250v-198zM675 1606h-251v198h251v-198z" />
<glyph unicode="&#x1e85;" horiz-adv-x="1280" d="M882 468l6 1l101 613h263l-222 -1082h-237l-151 583h-6l-151 -583h-237l-224 1082h265l101 -616h6l151 616h184zM988 1263h-250v198h250v-198zM540 1263h-251v198h251v-198z" />
<glyph unicode="&#x1ea0;" horiz-adv-x="1134" d="M765 309h-384l-78 -309h-287l410 1456h296l409 -1456h-287zM439 538h268l-131 515h-6zM734 -353h-316v241h316v-241z" />
<glyph unicode="&#x1ea1;" horiz-adv-x="944" d="M619 0q-12 27 -21.5 59t-14.5 65q-40 -66 -97.5 -105.5t-133.5 -39.5q-134 0 -214.5 88t-80.5 235q0 159 102.5 247t304.5 88h107v88q0 79 -28.5 121.5t-85.5 42.5q-48 0 -72 -34t-24 -99l-275 1l-3 6q-5 141 104.5 240t288.5 99q169 0 274.5 -98.5t105.5 -280.5v-438 q0 -80 11 -149t34 -136h-282zM434 193q43 0 79.5 23t57.5 59v199h-107q-65 0 -94 -45t-29 -114q0 -54 25 -88t68 -34zM563 -337h-316v241h316v-241z" />
<glyph unicode="&#x1ea2;" horiz-adv-x="1134" d="M765 309h-384l-78 -309h-287l410 1456h296l409 -1456h-287zM439 538h268l-131 515h-6zM465 1587l-17 129q60 3 85.5 19t25.5 50q0 39 -27.5 55t-81.5 16l6 131q169 0 256.5 -51t87.5 -142q0 -64 -35.5 -100t-86.5 -44v-63h-213z" />
<glyph unicode="&#x1ea3;" horiz-adv-x="944" d="M619 0q-12 27 -21.5 59t-14.5 65q-40 -66 -97.5 -105.5t-133.5 -39.5q-134 0 -214.5 88t-80.5 235q0 159 102.5 247t304.5 88h107v88q0 79 -28.5 121.5t-85.5 42.5q-48 0 -72 -34t-24 -99l-275 1l-3 6q-5 141 104.5 240t288.5 99q169 0 274.5 -98.5t105.5 -280.5v-438 q0 -80 11 -149t34 -136h-282zM434 193q43 0 79.5 23t57.5 59v199h-107q-65 0 -94 -45t-29 -114q0 -54 25 -88t68 -34zM358 1266l-17 129q60 3 85.5 19t25.5 50q0 39 -27.5 55t-81.5 16l6 131q169 0 256.5 -51t87.5 -142q0 -64 -35.5 -100t-86.5 -44v-63h-213z" />
<glyph unicode="&#x1ea4;" horiz-adv-x="1134" d="M765 309h-384l-78 -309h-287l410 1456h296l409 -1456h-287zM439 538h268l-131 515h-6zM462 1834h231l257 -249l-2 -6h-250l-121 144l-122 -144h-249l-2 6zM993 2014h256l-186 -268h-196z" />
<glyph unicode="&#x1ea5;" horiz-adv-x="944" d="M619 0q-12 27 -21.5 59t-14.5 65q-40 -66 -97.5 -105.5t-133.5 -39.5q-134 0 -214.5 88t-80.5 235q0 159 102.5 247t304.5 88h107v88q0 79 -28.5 121.5t-85.5 42.5q-48 0 -72 -34t-24 -99l-275 1l-3 6q-5 141 104.5 240t288.5 99q169 0 274.5 -98.5t105.5 -280.5v-438 q0 -80 11 -149t34 -136h-282zM434 193q43 0 79.5 23t57.5 59v199h-107q-65 0 -94 -45t-29 -114q0 -54 25 -88t68 -34zM355 1512h231l257 -249l-2 -6h-250l-121 144l-122 -144h-249l-2 6zM886 1692h256l-186 -268h-196z" />
<glyph unicode="&#x1ea6;" horiz-adv-x="1134" d="M765 309h-384l-78 -309h-287l410 1456h296l409 -1456h-287zM439 538h268l-131 515h-6zM946 1585l-2 -6h-249l-122 144l-122 -144h-249l-2 6l257 249h232zM283 1746h-193l-187 268h254z" />
<glyph unicode="&#x1ea7;" horiz-adv-x="944" d="M619 0q-12 27 -21.5 59t-14.5 65q-40 -66 -97.5 -105.5t-133.5 -39.5q-134 0 -214.5 88t-80.5 235q0 159 102.5 247t304.5 88h107v88q0 79 -28.5 121.5t-85.5 42.5q-48 0 -72 -34t-24 -99l-275 1l-3 6q-5 141 104.5 240t288.5 99q169 0 274.5 -98.5t105.5 -280.5v-438 q0 -80 11 -149t34 -136h-282zM434 193q43 0 79.5 23t57.5 59v199h-107q-65 0 -94 -45t-29 -114q0 -54 25 -88t68 -34zM839 1258l-2 -6h-249l-122 144l-122 -144h-249l-2 6l257 249h232zM176 1419h-193l-187 268h254z" />
<glyph unicode="&#x1ea8;" horiz-adv-x="1134" d="M765 309h-384l-78 -309h-287l410 1456h296l409 -1456h-287zM439 538h268l-131 515h-6zM942 1585l-2 -6h-246l-126 148l-125 -148h-245l-2 6l255 249h236zM865 1712l-15 110q51 3 74 16t23 40q0 33 -24.5 47t-70.5 14l6 111q141 0 215 -43t74 -119q0 -55 -30 -85.5 t-73 -37.5v-53h-179z" />
<glyph unicode="&#x1ea9;" horiz-adv-x="944" d="M619 0q-12 27 -21.5 59t-14.5 65q-40 -66 -97.5 -105.5t-133.5 -39.5q-134 0 -214.5 88t-80.5 235q0 159 102.5 247t304.5 88h107v88q0 79 -28.5 121.5t-85.5 42.5q-48 0 -72 -34t-24 -99l-275 1l-3 6q-5 141 104.5 240t288.5 99q169 0 274.5 -98.5t105.5 -280.5v-438 q0 -80 11 -149t34 -136h-282zM434 193q43 0 79.5 23t57.5 59v199h-107q-65 0 -94 -45t-29 -114q0 -54 25 -88t68 -34zM835 1234l-2 -6h-246l-126 148l-125 -148h-245l-2 6l255 249h236zM758 1361l-15 110q51 3 74 16t23 40q0 33 -24.5 47t-70.5 14l6 111q141 0 215 -43 t74 -119q0 -55 -30 -85.5t-73 -37.5v-53h-179z" />
<glyph unicode="&#x1eaa;" horiz-adv-x="1134" d="M765 309h-384l-78 -309h-287l410 1456h296l409 -1456h-287zM439 538h268l-131 515h-6zM929 1593l-3 -6h-240l-125 132l-124 -132h-241l-3 6l253 221h230zM805 2054q0 -69 -34.5 -121t-89.5 -52q-43 0 -107 36.5t-96 36.5q-19 0 -30 -24.5t-11 -59.5l-105 31 q0 69 33.5 122t88.5 53q33 0 102 -35.5t101 -35.5q18 0 30 26.5t12 62.5z" />
<glyph unicode="&#x1eab;" horiz-adv-x="944" d="M619 0q-12 27 -21.5 59t-14.5 65q-40 -66 -97.5 -105.5t-133.5 -39.5q-134 0 -214.5 88t-80.5 235q0 159 102.5 247t304.5 88h107v88q0 79 -28.5 121.5t-85.5 42.5q-48 0 -72 -34t-24 -99l-275 1l-3 6q-5 141 104.5 240t288.5 99q169 0 274.5 -98.5t105.5 -280.5v-438 q0 -80 11 -149t34 -136h-282zM434 193q43 0 79.5 23t57.5 59v199h-107q-65 0 -94 -45t-29 -114q0 -54 25 -88t68 -34zM822 1216l-3 -6h-240l-125 132l-124 -132h-241l-3 6l253 221h230zM698 1677q0 -69 -34.5 -121t-89.5 -52q-43 0 -107 36.5t-96 36.5q-19 0 -30 -24.5 t-11 -59.5l-105 31q0 69 33.5 122t88.5 53q33 0 102 -35.5t101 -35.5q18 0 30 26.5t12 62.5z" />
<glyph unicode="&#x1eac;" horiz-adv-x="1134" d="M765 309h-384l-78 -309h-287l410 1456h296l409 -1456h-287zM439 538h268l-131 515h-6zM909 1613v-22h-222l-114 134l-112 -134h-217v25l250 237h159zM734 -353h-316v241h316v-241z" />
<glyph unicode="&#x1ead;" horiz-adv-x="944" d="M619 0q-12 27 -21.5 59t-14.5 65q-40 -66 -97.5 -105.5t-133.5 -39.5q-134 0 -214.5 88t-80.5 235q0 159 102.5 247t304.5 88h107v88q0 79 -28.5 121.5t-85.5 42.5q-48 0 -72 -34t-24 -99l-275 1l-3 6q-5 141 104.5 240t288.5 99q169 0 274.5 -98.5t105.5 -280.5v-438 q0 -80 11 -149t34 -136h-282zM434 193q43 0 79.5 23t57.5 59v199h-107q-65 0 -94 -45t-29 -114q0 -54 25 -88t68 -34zM802 1291v-22h-222l-114 134l-112 -134h-217v25l250 237h159zM563 -337h-316v241h316v-241z" />
<glyph unicode="&#x1eae;" horiz-adv-x="1134" d="M765 309h-384l-78 -309h-287l410 1456h296l409 -1456h-287zM439 538h268l-131 515h-6zM859 1813l2 -6q5 -107 -78 -175t-222 -68q-141 0 -223.5 68t-76.5 175l2 6h204q0 -45 22.5 -73t71.5 -28q47 0 69.5 28.5t22.5 72.5h206zM590 2037h201l-149 -189h-153z" />
<glyph unicode="&#x1eaf;" horiz-adv-x="944" d="M619 0q-12 27 -21.5 59t-14.5 65q-40 -66 -97.5 -105.5t-133.5 -39.5q-134 0 -214.5 88t-80.5 235q0 159 102.5 247t304.5 88h107v88q0 79 -28.5 121.5t-85.5 42.5q-48 0 -72 -34t-24 -99l-275 1l-3 6q-5 141 104.5 240t288.5 99q169 0 274.5 -98.5t105.5 -280.5v-438 q0 -80 11 -149t34 -136h-282zM434 193q43 0 79.5 23t57.5 59v199h-107q-65 0 -94 -45t-29 -114q0 -54 25 -88t68 -34zM752 1459l2 -6q5 -107 -78 -175t-222 -68q-141 0 -223.5 68t-76.5 175l2 6h204q0 -45 22.5 -73t71.5 -28q47 0 69.5 28.5t22.5 72.5h206zM483 1683h201 l-149 -189h-153z" />
<glyph unicode="&#x1eb0;" horiz-adv-x="1134" d="M765 309h-384l-78 -309h-287l410 1456h296l409 -1456h-287zM439 538h268l-131 515h-6zM878 1849l2 -6q4 -128 -79.5 -208.5t-222.5 -80.5q-141 0 -224.5 80.5t-78.5 208.5l2 6h189q0 -52 27 -85.5t85 -33.5q56 0 83.5 33.5t27.5 85.5h189zM704 1906h-217l-173 216l3 5 h253z" />
<glyph unicode="&#x1eb1;" horiz-adv-x="944" d="M619 0q-12 27 -21.5 59t-14.5 65q-40 -66 -97.5 -105.5t-133.5 -39.5q-134 0 -214.5 88t-80.5 235q0 159 102.5 247t304.5 88h107v88q0 79 -28.5 121.5t-85.5 42.5q-48 0 -72 -34t-24 -99l-275 1l-3 6q-5 141 104.5 240t288.5 99q169 0 274.5 -98.5t105.5 -280.5v-438 q0 -80 11 -149t34 -136h-282zM434 193q43 0 79.5 23t57.5 59v199h-107q-65 0 -94 -45t-29 -114q0 -54 25 -88t68 -34zM771 1552l2 -6q4 -128 -79.5 -208.5t-222.5 -80.5q-141 0 -224.5 80.5t-78.5 208.5l2 6h189q0 -52 27 -85.5t85 -33.5q56 0 83.5 33.5t27.5 85.5h189z M597 1609h-217l-173 216l3 5h253z" />
<glyph unicode="&#x1eb2;" horiz-adv-x="1134" d="M765 309h-384l-78 -309h-287l410 1456h296l409 -1456h-287zM439 538h268l-131 515h-6zM868 1813l1 -6q6 -101 -78 -165t-226 -64q-143 0 -226.5 64t-76.5 165l1 6h206q0 -42 23 -69t73 -27q48 0 72 27t24 69h207zM457 1855l-17 104q57 2 83 14.5t26 38.5q0 31 -27.5 43.5 t-79.5 12.5l6 103q165 0 250.5 -39.5t85.5 -111.5q0 -51 -35 -79.5t-85 -34.5v-51h-207z" />
<glyph unicode="&#x1eb3;" horiz-adv-x="944" d="M619 0q-12 27 -21.5 59t-14.5 65q-40 -66 -97.5 -105.5t-133.5 -39.5q-134 0 -214.5 88t-80.5 235q0 159 102.5 247t304.5 88h107v88q0 79 -28.5 121.5t-85.5 42.5q-48 0 -72 -34t-24 -99l-275 1l-3 6q-5 141 104.5 240t288.5 99q169 0 274.5 -98.5t105.5 -280.5v-438 q0 -80 11 -149t34 -136h-282zM434 193q43 0 79.5 23t57.5 59v199h-107q-65 0 -94 -45t-29 -114q0 -54 25 -88t68 -34zM761 1487l1 -6q6 -101 -78 -165t-226 -64q-143 0 -226.5 64t-76.5 165l1 6h206q0 -42 23 -69t73 -27q48 0 72 27t24 69h207zM350 1529l-17 104 q57 2 83 14.5t26 38.5q0 31 -27.5 43.5t-79.5 12.5l6 103q165 0 250.5 -39.5t85.5 -111.5q0 -51 -35 -79.5t-85 -34.5v-51h-207z" />
<glyph unicode="&#x1eb4;" horiz-adv-x="1134" d="M765 309h-384l-78 -309h-287l410 1456h296l409 -1456h-287zM439 538h268l-131 515h-6zM867 1803l2 -6q5 -102 -77.5 -166.5t-221.5 -64.5q-140 0 -222.5 64.5t-76.5 166.5l2 6h203q0 -43 22.5 -70t71.5 -27q47 0 69.5 27t22.5 70h205zM818 2075q0 -75 -40 -127.5 t-99 -52.5q-47 0 -107 35t-92 35q-22 0 -36.5 -25.5t-14.5 -62.5l-113 33q0 73 38.5 126.5t99.5 53.5q34 0 98.5 -34.5t99.5 -34.5q20 0 35 25t15 63z" />
<glyph unicode="&#x1eb5;" horiz-adv-x="944" d="M619 0q-12 27 -21.5 59t-14.5 65q-40 -66 -97.5 -105.5t-133.5 -39.5q-134 0 -214.5 88t-80.5 235q0 159 102.5 247t304.5 88h107v88q0 79 -28.5 121.5t-85.5 42.5q-48 0 -72 -34t-24 -99l-275 1l-3 6q-5 141 104.5 240t288.5 99q169 0 274.5 -98.5t105.5 -280.5v-438 q0 -80 11 -149t34 -136h-282zM434 193q43 0 79.5 23t57.5 59v199h-107q-65 0 -94 -45t-29 -114q0 -54 25 -88t68 -34zM760 1481l2 -6q5 -102 -77.5 -166.5t-221.5 -64.5q-140 0 -222.5 64.5t-76.5 166.5l2 6h203q0 -43 22.5 -70t71.5 -27q47 0 69.5 27t22.5 70h205z M711 1753q0 -75 -40 -127.5t-99 -52.5q-47 0 -107 35t-92 35q-22 0 -36.5 -25.5t-14.5 -62.5l-113 33q0 73 38.5 126.5t99.5 53.5q34 0 98.5 -34.5t99.5 -34.5q20 0 35 25t15 63z" />
<glyph unicode="&#x1eb6;" horiz-adv-x="1134" d="M765 309h-384l-78 -309h-287l410 1456h296l409 -1456h-287zM439 538h268l-131 515h-6zM884 1897l2 -6q4 -129 -81.5 -209.5t-229.5 -80.5q-146 0 -232 81t-81 209l2 6h207q0 -53 25.5 -87t78.5 -34q51 0 75.5 34t24.5 87h209zM734 -353h-316v241h316v-241z" />
<glyph unicode="&#x1eb7;" horiz-adv-x="944" d="M619 0q-12 27 -21.5 59t-14.5 65q-40 -66 -97.5 -105.5t-133.5 -39.5q-134 0 -214.5 88t-80.5 235q0 159 102.5 247t304.5 88h107v88q0 79 -28.5 121.5t-85.5 42.5q-48 0 -72 -34t-24 -99l-275 1l-3 6q-5 141 104.5 240t288.5 99q169 0 274.5 -98.5t105.5 -280.5v-438 q0 -80 11 -149t34 -136h-282zM434 193q43 0 79.5 23t57.5 59v199h-107q-65 0 -94 -45t-29 -114q0 -54 25 -88t68 -34zM777 1575l2 -6q4 -129 -81.5 -209.5t-229.5 -80.5q-146 0 -232 81t-81 209l2 6h207q0 -53 25.5 -87t78.5 -34q51 0 75.5 34t24.5 87h209zM563 -337h-316 v241h316v-241z" />
<glyph unicode="&#x1eb8;" horiz-adv-x="1008" d="M884 639h-489v-412h575v-227h-860v1456h858v-228h-573v-362h489v-227zM672 -343h-316v241h316v-241z" />
<glyph unicode="&#x1eb9;" horiz-adv-x="938" d="M513 -21q-204 0 -324 134t-120 338v152q0 219 111.5 359t308.5 140q190 0 294 -127t104 -346v-174h-535v-4q0 -107 48.5 -176t146.5 -69q80 0 130 18t119 60l72 -181q-56 -54 -149.5 -89t-205.5 -35zM489 874q-68 0 -100 -62t-36 -167h255v40q0 90 -28 139.5t-91 49.5z M653 -353h-316v241h316v-241z" />
<glyph unicode="&#x1eba;" horiz-adv-x="1008" d="M884 639h-489v-412h575v-227h-860v1456h858v-228h-573v-362h489v-227zM405 1587l-17 129q60 3 85.5 19t25.5 50q0 39 -27.5 55t-81.5 16l6 131q169 0 256.5 -51t87.5 -142q0 -64 -35.5 -100t-86.5 -44v-63h-213z" />
<glyph unicode="&#x1ebb;" horiz-adv-x="938" d="M513 -21q-204 0 -324 134t-120 338v152q0 219 111.5 359t308.5 140q190 0 294 -127t104 -346v-174h-535v-4q0 -107 48.5 -176t146.5 -69q80 0 130 18t119 60l72 -181q-56 -54 -149.5 -89t-205.5 -35zM489 874q-68 0 -100 -62t-36 -167h255v40q0 90 -28 139.5t-91 49.5z M357 1266l-17 129q60 3 85.5 19t25.5 50q0 39 -27.5 55t-81.5 16l6 131q169 0 256.5 -51t87.5 -142q0 -64 -35.5 -100t-86.5 -44v-63h-213z" />
<glyph unicode="&#x1ebc;" horiz-adv-x="1008" d="M884 639h-489v-412h575v-227h-860v1456h858v-228h-573v-362h489v-227zM841 1854q0 -95 -51 -161.5t-130 -66.5q-59 0 -136.5 44t-121.5 44q-27 0 -46 -33t-19 -79l-149 43q0 93 51.5 161t129.5 68q46 0 129.5 -44t128.5 -44q27 0 46.5 32.5t19.5 80.5z" />
<glyph unicode="&#x1ebd;" horiz-adv-x="938" d="M513 -21q-204 0 -324 134t-120 338v152q0 219 111.5 359t308.5 140q190 0 294 -127t104 -346v-174h-535v-4q0 -107 48.5 -176t146.5 -69q80 0 130 18t119 60l72 -181q-56 -54 -149.5 -89t-205.5 -35zM489 874q-68 0 -100 -62t-36 -167h255v40q0 90 -28 139.5t-91 49.5z M793 1533q0 -95 -51 -161.5t-130 -66.5q-59 0 -136.5 44t-121.5 44q-27 0 -46 -33t-19 -79l-149 43q0 93 51.5 161t129.5 68q46 0 129.5 -44t128.5 -44q27 0 46.5 32.5t19.5 80.5z" />
<glyph unicode="&#x1ebe;" horiz-adv-x="1008" d="M884 639h-489v-412h575v-227h-860v1456h858v-228h-573v-362h489v-227zM402 1834h231l257 -249l-2 -6h-250l-121 144l-122 -144h-249l-2 6zM933 2014h256l-186 -268h-196z" />
<glyph unicode="&#x1ebf;" horiz-adv-x="938" d="M513 -21q-204 0 -324 134t-120 338v152q0 219 111.5 359t308.5 140q190 0 294 -127t104 -346v-174h-535v-4q0 -107 48.5 -176t146.5 -69q80 0 130 18t119 60l72 -181q-56 -54 -149.5 -89t-205.5 -35zM489 874q-68 0 -100 -62t-36 -167h255v40q0 90 -28 139.5t-91 49.5z M354 1513h231l257 -249l-2 -6h-250l-121 144l-122 -144h-249l-2 6zM885 1693h256l-186 -268h-196z" />
<glyph unicode="&#x1ec0;" horiz-adv-x="1008" d="M884 639h-489v-412h575v-227h-860v1456h858v-228h-573v-362h489v-227zM886 1580l-2 -6h-249l-122 144l-122 -144h-249l-2 6l257 249h232zM223 1741h-193l-187 268h254z" />
<glyph unicode="&#x1ec1;" horiz-adv-x="938" d="M513 -21q-204 0 -324 134t-120 338v152q0 219 111.5 359t308.5 140q190 0 294 -127t104 -346v-174h-535v-4q0 -107 48.5 -176t146.5 -69q80 0 130 18t119 60l72 -181q-56 -54 -149.5 -89t-205.5 -35zM489 874q-68 0 -100 -62t-36 -167h255v40q0 90 -28 139.5t-91 49.5z M838 1259l-2 -6h-249l-122 144l-122 -144h-249l-2 6l257 249h232zM175 1420h-193l-187 268h254z" />
<glyph unicode="&#x1ec2;" horiz-adv-x="1008" d="M884 639h-489v-412h575v-227h-860v1456h858v-228h-573v-362h489v-227zM882 1554l-2 -6h-246l-126 148l-125 -148h-245l-2 6l255 249h236zM805 1681l-15 110q51 3 74 16t23 40q0 33 -24.5 47t-70.5 14l6 111q141 0 215 -43t74 -119q0 -55 -30 -85.5t-73 -37.5v-53h-179z " />
<glyph unicode="&#x1ec3;" horiz-adv-x="938" d="M513 -21q-204 0 -324 134t-120 338v152q0 219 111.5 359t308.5 140q190 0 294 -127t104 -346v-174h-535v-4q0 -107 48.5 -176t146.5 -69q80 0 130 18t119 60l72 -181q-56 -54 -149.5 -89t-205.5 -35zM489 874q-68 0 -100 -62t-36 -167h255v40q0 90 -28 139.5t-91 49.5z M834 1235l-2 -6h-246l-126 148l-125 -148h-245l-2 6l255 249h236zM757 1362l-15 110q51 3 74 16t23 40q0 33 -24.5 47t-70.5 14l6 111q141 0 215 -43t74 -119q0 -55 -30 -85.5t-73 -37.5v-53h-179z" />
<glyph unicode="&#x1ec4;" horiz-adv-x="1008" d="M884 639h-489v-412h575v-227h-860v1456h858v-228h-573v-362h489v-227zM869 1576l-3 -6h-240l-125 132l-124 -132h-241l-3 6l253 221h230zM745 2037q0 -69 -34.5 -121t-89.5 -52q-43 0 -107 36.5t-96 36.5q-19 0 -30 -24.5t-11 -59.5l-105 31q0 69 33.5 122t88.5 53 q33 0 102 -35.5t101 -35.5q18 0 30 26.5t12 62.5z" />
<glyph unicode="&#x1ec5;" horiz-adv-x="938" d="M513 -21q-204 0 -324 134t-120 338v152q0 219 111.5 359t308.5 140q190 0 294 -127t104 -346v-174h-535v-4q0 -107 48.5 -176t146.5 -69q80 0 130 18t119 60l72 -181q-56 -54 -149.5 -89t-205.5 -35zM489 874q-68 0 -100 -62t-36 -167h255v40q0 90 -28 139.5t-91 49.5z M821 1217l-3 -6h-240l-125 132l-124 -132h-241l-3 6l253 221h230zM697 1678q0 -69 -34.5 -121t-89.5 -52q-43 0 -107 36.5t-96 36.5q-19 0 -30 -24.5t-11 -59.5l-105 31q0 69 33.5 122t88.5 53q33 0 102 -35.5t101 -35.5q18 0 30 26.5t12 62.5z" />
<glyph unicode="&#x1ec6;" horiz-adv-x="1008" d="M884 639h-489v-412h575v-227h-860v1456h858v-228h-573v-362h489v-227zM849 1613v-22h-222l-114 134l-112 -134h-217v25l250 237h159zM672 -343h-316v241h316v-241z" />
<glyph unicode="&#x1ec7;" horiz-adv-x="938" d="M513 -21q-204 0 -324 134t-120 338v152q0 219 111.5 359t308.5 140q190 0 294 -127t104 -346v-174h-535v-4q0 -107 48.5 -176t146.5 -69q80 0 130 18t119 60l72 -181q-56 -54 -149.5 -89t-205.5 -35zM489 874q-68 0 -100 -62t-36 -167h255v40q0 90 -28 139.5t-91 49.5z M801 1292v-22h-222l-114 134l-112 -134h-217v25l250 237h159zM653 -353h-316v241h316v-241z" />
<glyph unicode="&#x1ec8;" horiz-adv-x="534" d="M408 0h-283v1456h283v-1456zM159 1587l-17 129q60 3 85.5 19t25.5 50q0 39 -27.5 55t-81.5 16l6 131q169 0 256.5 -51t87.5 -142q0 -64 -35.5 -100t-86.5 -44v-63h-213z" />
<glyph unicode="&#x1ec9;" horiz-adv-x="513" d="M398 0h-285v1082h285v-1082zM147 1246l-17 129q60 3 85.5 19t25.5 50q0 39 -27.5 55t-81.5 16l6 131q169 0 256.5 -51t87.5 -142q0 -64 -35.5 -100t-86.5 -44v-63h-213z" />
<glyph unicode="&#x1eca;" horiz-adv-x="534" d="M408 0h-283v1456h283v-1456zM426 -344h-316v241h316v-241z" />
<glyph unicode="&#x1ecb;" horiz-adv-x="495" d="M389 0h-284v1082h284v-1082zM389 1343h-284v217h284v-217zM405 -343h-316v241h316v-241z" />
<glyph unicode="&#x1ecc;" horiz-adv-x="1166" d="M1091 523q0 -256 -139 -400t-370 -144t-369 144t-138 400v408q0 255 138 400.5t368 145.5t370 -145.5t140 -400.5v-408zM808 933q0 156 -58 235.5t-169 79.5q-112 0 -168 -79t-56 -236v-410q0 -158 57 -237t168 -79q110 0 168 79t58 237v410zM741 -360h-316v241h316v-241 z" />
<glyph unicode="&#x1ecd;" d="M58 607q0 218 115.5 356.5t323.5 138.5t324 -138.5t116 -356.5v-134q0 -220 -116 -357t-323 -137q-209 0 -324.5 137t-115.5 357v134zM341 473q0 -125 35 -196t122 -71q84 0 119.5 71.5t35.5 195.5v134q0 122 -35.5 194.5t-120.5 72.5t-120.5 -73t-35.5 -194v-134z M654 -361h-316v241h316v-241z" />
<glyph unicode="&#x1ece;" horiz-adv-x="1166" d="M1091 523q0 -256 -139 -400t-370 -144t-369 144t-138 400v408q0 255 138 400.5t368 145.5t370 -145.5t140 -400.5v-408zM808 933q0 156 -58 235.5t-169 79.5q-112 0 -168 -79t-56 -236v-410q0 -158 57 -237t168 -79q110 0 168 79t58 237v410zM475 1608l-17 129 q60 3 85.5 19t25.5 50q0 39 -27.5 55t-81.5 16l6 131q169 0 256.5 -51t87.5 -142q0 -64 -35.5 -100t-86.5 -44v-63h-213z" />
</font>
</defs>
</svg>
