<?xml version="1.0" standalone="no"?>
<!DOCTYPE svg PUBLIC "-//W3C//DTD SVG 1.1//EN" "http://www.w3.org/Graphics/SVG/1.1/DTD/svg11.dtd" >
<svg xmlns="http://www.w3.org/2000/svg">
<metadata></metadata>
<defs>
<font id="roboto_condenseditalic" horiz-adv-x="960" >
<font-face units-per-em="2048" ascent="1638" descent="-410" />
<missing-glyph horiz-adv-x="436" />
<glyph unicode="fi" horiz-adv-x="992" d="M80 0l187 937h-134l29 145h134l23 111q39 198 150 293t283 95q56 0 115 -16t122 -44l-61 -158q-43 22 -90.5 35.5t-105.5 13.5q-82 0 -137 -56.5t-75 -162.5l-23 -111h171l-29 -145h-171l-187 -937h-201zM780 0h-201l216 1082h201z" />
<glyph horiz-adv-x="0" />
<glyph horiz-adv-x="0" />
<glyph horiz-adv-x="26" />
<glyph unicode="&#x9;" horiz-adv-x="26" />
<glyph unicode=" "  horiz-adv-x="436" />
<glyph unicode="&#x09;" horiz-adv-x="436" />
<glyph unicode="&#xa0;" horiz-adv-x="436" />
<glyph unicode="!" horiz-adv-x="468" d="M347 485h-201l194 971h201zM250 0h-200l41 204h200z" />
<glyph unicode="&#x22;" horiz-adv-x="578" d="M373 1311l-97 -254h-95l40 245l42 258h150zM636 1311l-97 -254h-94l41 252l41 251h149z" />
<glyph unicode="#" horiz-adv-x="1028" d="M557 410h-178l-143 -410h-136l143 410h-187l26 130h206l129 368h-200l26 132h220l145 416h136l-145 -416h178l145 416h136l-145 -416h169l-26 -132h-189l-128 -368h183l-26 -130h-203l-142 -410h-137zM424 540h178l129 368h-178z" />
<glyph unicode="$" horiz-adv-x="965" d="M659 370q16 99 -17 159.5t-130 115.5q-160 70 -229.5 167.5t-41.5 269.5q27 169 125 271t242 120l34 212h129l-35 -215q130 -26 191 -145t31 -311h-201q22 141 -8.5 222t-107.5 81t-130.5 -66t-69.5 -167q-16 -100 16 -158.5t134 -116.5q160 -73 228 -169.5t41 -267.5 q-29 -175 -128.5 -273.5t-250.5 -115.5l-31 -193h-128l31 194q-138 19 -216.5 128.5t-44.5 319.5h200q-26 -164 18 -229t129 -65q82 0 143 65t77 167z" />
<glyph unicode="%" horiz-adv-x="1299" d="M247 1176q27 136 112.5 218.5t207.5 82.5q112 0 168.5 -88t31.5 -213l-15 -77q-28 -136 -112.5 -217.5t-206.5 -81.5q-113 0 -170 87t-31 212zM373 1099q-16 -79 4.5 -129t79.5 -50q53 0 95.5 53t58.5 126l15 77q15 79 -5 130t-78 51q-53 0 -97 -54t-58 -127zM676 357 q27 135 112.5 217.5t207.5 82.5q113 0 169 -87.5t31 -212.5l-15 -78q-28 -137 -112 -218.5t-206 -81.5q-113 0 -170.5 87.5t-31.5 212.5zM803 279q-16 -79 5.5 -129.5t78.5 -50.5q55 0 96.5 52.5t57.5 127.5l15 78q16 80 -5 130t-79 50q-53 0 -96.5 -53.5t-57.5 -126.5z M338 113l-91 63l801 1138l89 -63z" />
<glyph unicode="&#x26;" horiz-adv-x="1132" d="M58 383q20 126 93 214.5t209 186.5q-50 99 -69 178.5t-5 162.5q27 172 126.5 262t248.5 90q128 0 199.5 -90.5t51.5 -217.5q-17 -100 -69 -169.5t-143 -135.5l-110 -84l213 -388l6 1q38 57 65.5 129t41.5 153h162q-22 -136 -69.5 -243t-123.5 -191l133 -241h-234l-55 101 q-81 -60 -164.5 -91t-170.5 -31q-176 0 -270.5 112.5t-65.5 291.5zM424 133q56 0 117.5 23.5t119.5 69.5l-234 430l-22 -17q-73 -72 -104 -134.5t-39 -116.5q-18 -114 24 -184.5t138 -70.5zM475 1127q-8 -52 4.5 -105.5t43.5 -117.5l108 79q55 40 79.5 84t32.5 97 q10 66 -18.5 111.5t-88.5 45.5t-104 -56.5t-57 -137.5z" />
<glyph unicode="'" horiz-adv-x="315" d="M373 1334l-98 -279h-94l42 266l39 239h148z" />
<glyph unicode="(" horiz-adv-x="588" d="M140 590q63 395 231 667.5t333 365.5l6 -1l18 -107q-121 -102 -237 -344t-170 -579l-3 -20q-57 -350 -18 -583t129 -344l-52 -103h-6q-134 93 -214.5 371t-18.5 661z" />
<glyph unicode=")" horiz-adv-x="591" d="M499 573q-64 -396 -233.5 -666.5t-336.5 -364.5h-6l-21 102q120 103 237.5 346.5t171.5 580.5l3 20q55 347 14 584t-126 345l54 102h6q133 -91 216 -374.5t23 -658.5z" />
<glyph unicode="*" horiz-adv-x="782" d="M402 984l-235 96l71 140l230 -119l60 355h142l-83 -361l272 121l15 -141l-280 -100l113 -278l-133 -87l-93 295l-208 -289l-99 84z" />
<glyph unicode="+" horiz-adv-x="987" d="M657 774h324l-35 -174h-323l-91 -454h-195l91 454h-324l35 174h323l87 432h195z" />
<glyph unicode="," horiz-adv-x="392" d="M217 24l-184 -295h-119l117 302l37 183h187z" />
<glyph unicode="-" horiz-adv-x="584" d="M526 542h-427l31 155h427z" />
<glyph unicode="." horiz-adv-x="489" d="M251 0h-201l41 203h201z" />
<glyph unicode="/" horiz-adv-x="672" d="M59 -125h-157l774 1581h157z" />
<glyph unicode="0" horiz-adv-x="965" d="M897 563q-61 -301 -191 -442.5t-311 -141.5q-167 0 -247.5 153.5t-24.5 430.5l65 329q60 300 191 442.5t313 142.5q166 0 245.5 -154.5t24.5 -430.5zM768 921q42 211 13.5 304.5t-118.5 88.5l-6 1q-81 4 -152 -98t-110 -296l-77 -386q-43 -210 -14 -305.5t120 -89.5l6 -1 q80 -5 151 98t110 298z" />
<glyph unicode="1" horiz-adv-x="965" d="M524 -2h-200l251 1255l-273 -19l26 131l487 92z" />
<glyph unicode="2" horiz-adv-x="965" d="M812 0h-782l22 135l465 526q113 136 162.5 225.5t64.5 174.5q19 120 -14.5 190t-112.5 70q-95 0 -160 -81t-86 -217h-192l-2 6q26 195 152 321.5t313 126.5q164 0 248.5 -113.5t55.5 -296.5q-22 -131 -99.5 -248t-219.5 -270l-317 -390l3 -5h524z" />
<glyph unicode="3" horiz-adv-x="965" d="M382 776l7 42h135q90 0 144.5 68t73.5 182q19 123 -14.5 188t-121.5 65q-75 0 -138 -68t-80 -177h-190l-2 6q24 176 145.5 285.5t285.5 109.5q167 0 256 -108.5t59 -302.5q-17 -101 -79.5 -189t-159.5 -133q95 -43 132 -134.5t19 -207.5q-33 -205 -160.5 -314 t-304.5 -109q-157 0 -255 109t-66 304h200q-20 -120 21 -189.5t127 -69.5q87 0 151.5 70t85.5 197q22 142 -16 203.5t-138 61.5h-135z" />
<glyph unicode="4" horiz-adv-x="965" d="M778 497h146l-31 -155h-146l-68 -342h-200l68 342h-500l17 114l701 1000h205zM268 497h310l131 656l-6 2l-22 -34z" />
<glyph unicode="5" horiz-adv-x="965" d="M172 654l195 802h625l-27 -167h-458l-105 -432q41 38 90.5 62.5t107.5 26.5q166 2 238.5 -127.5t36.5 -353.5q-36 -225 -154 -355.5t-308 -130.5q-151 0 -245 105.5t-62 302.5l197 4q-21 -128 16.5 -193t117.5 -65q88 0 150 88.5t87 241.5q24 151 -10 237t-125 86 q-76 0 -123 -38t-74 -111z" />
<glyph unicode="6" horiz-adv-x="965" d="M727 1477q61 0 118 -17t99 -46l-62 -149q-37 27 -79 41t-100 14q-110 0 -202.5 -118.5t-123.5 -313.5l-5 -32q56 52 125 81.5t144 29.5q152 0 224 -137t38 -348q-37 -228 -162.5 -365.5t-298.5 -137.5t-267.5 154.5t-50.5 424.5l51 316q45 281 199 442t353 161zM568 818 q-70 0 -128 -37t-97 -100l-21 -135q-33 -203 8.5 -308.5t135.5 -105.5q80 0 146.5 102.5t90.5 247.5q25 154 -10.5 245t-124.5 91z" />
<glyph unicode="7" horiz-adv-x="965" d="M1019 1300q-244 -277 -355.5 -528t-204.5 -633l-35 -139h-199l33 139q88 353 226 634.5t340 526.5h-618l25 156h813z" />
<glyph unicode="8" horiz-adv-x="965" d="M976 1076q-25 -123 -94 -208.5t-168 -125.5q90 -47 133 -139t20 -211q-43 -213 -168.5 -313t-304.5 -100q-166 0 -258.5 108t-52.5 305q27 133 105 225t191 133q-80 45 -116 130.5t-13 195.5q40 204 157.5 302.5t284.5 98.5q151 0 236 -106.5t48 -294.5zM669 399 q25 128 -14 199.5t-124 71.5q-80 0 -151 -76.5t-94 -194.5q-27 -133 11 -199.5t128 -66.5q79 0 149 72t95 194zM773 1071q23 116 -8 183t-104 67q-70 0 -129.5 -68.5t-81.5 -181.5q-24 -120 6.5 -183.5t106.5 -63.5q68 0 127.5 68t82.5 179z" />
<glyph unicode="9" horiz-adv-x="965" d="M379 133q99 0 182 103.5t114 294.5l10 63q-50 -68 -112.5 -102t-130.5 -34q-160 0 -238.5 136t-41.5 363q37 232 168.5 376t295.5 144q175 0 264 -145.5t47 -413.5l-61 -380q-44 -276 -186 -417.5t-335 -141.5q-57 0 -121 15.5t-114 44.5l50 148q47 -29 96 -41.5 t113 -12.5zM488 610q70 0 128.5 45t96.5 116l27 167q31 196 -5 289.5t-131 93.5q-75 0 -146 -106t-95 -258q-26 -160 6.5 -253.5t118.5 -93.5z" />
<glyph unicode=":" horiz-adv-x="471" d="M251 0h-201l41 203h201zM427 878h-201l41 203h201z" />
<glyph unicode=";" horiz-adv-x="465" d="M423 879h-201l41 203h201zM255 24l-184 -295h-119l117 302l37 183h187z" />
<glyph unicode="&#x3c;" horiz-adv-x="866" d="M299 567l-65 -14v-6l59 -14l421 -240l-39 -192l-602 376l21 104l10 47l751 374l-38 -192z" />
<glyph unicode="=" horiz-adv-x="967" d="M905 808h-699l32 160h699zM821 390h-699l32 160h699z" />
<glyph unicode="&#x3e;" horiz-adv-x="884" d="M189 814l38 188l623 -374l-9 -45l-12 -62l-9 -45l-773 -375l38 189l539 247l64 13v6l-57 15z" />
<glyph unicode="?" horiz-adv-x="831" d="M282 408q27 133 65 190.5t147 151.5q85 91 134.5 163t69.5 170q22 117 -8 175t-109 58q-60 0 -120 -57.5t-80 -155.5h-192l-2 6q31 173 150 270.5t276 97.5q160 0 240.5 -106.5t45.5 -284.5q-28 -139 -102.5 -237.5t-197.5 -207.5q-56 -51 -77.5 -98t-38.5 -135h-201z M404 0h-205l40 198h205z" />
<glyph unicode="@" horiz-adv-x="1569" d="M1493 509q-51 -216 -179 -373t-321 -157q-62 0 -101 46t-42 129q-58 -87 -125 -130.5t-143 -43.5q-106 0 -146 121.5t13 314.5q72 255 201.5 409.5t270.5 154.5q86 0 142 -28t110 -79l-3 -3h4l-159 -577q-30 -116 -16 -158t50 -35l6 -1q91 -5 178 113.5t131 296.5 q90 376 -1 586t-370 210q-242 0 -453.5 -231t-295.5 -596q-90 -370 6.5 -590.5t359.5 -220.5q69 0 152.5 21.5t142.5 54.5l9 -107q-65 -42 -157 -65.5t-175 -23.5q-307 0 -444 253.5t-38 677.5q100 425 349 684.5t571 259.5q303 0 436 -249.5t37 -663.5zM615 416 q-38 -143 -27.5 -222t70.5 -79q49 0 99.5 31.5t102.5 111.5q1 7 3 15l5 20l147 537q-19 11 -40.5 17t-46.5 6q-94 0 -174.5 -111t-138.5 -326z" />
<glyph unicode="A" horiz-adv-x="1098" d="M757 368h-434l-174 -368h-203l717 1456h193l131 -1456h-203zM400 529h345l-44 620l-6 1z" />
<glyph unicode="B" horiz-adv-x="1083" d="M53 0l291 1456h391q185 0 281.5 -100t58.5 -292q-23 -111 -87.5 -188.5t-161.5 -111.5q107 -26 147.5 -123t14.5 -229q-43 -214 -169 -313t-322 -99h-444zM390 679l-105 -525h243q94 0 164.5 67.5t95.5 189.5q26 131 -5.5 199.5t-128.5 68.5h-264zM419 825h217 q84 3 149.5 64.5t87.5 170.5q25 128 -17.5 184t-151.5 56h-190z" />
<glyph unicode="C" horiz-adv-x="1077" d="M1004 459l2 -6q-58 -227 -182 -350.5t-323 -123.5q-196 0 -309.5 180t-59.5 444l52 260q58 293 201 453.5t347 160.5q196 0 304 -135.5t80 -363.5h-199q18 164 -31.5 253.5t-173.5 89.5q-108 0 -197.5 -128t-129.5 -328l-52 -262q-44 -215 7.5 -342.5t177.5 -127.5 q109 0 177.5 79t116.5 247h192z" />
<glyph unicode="D" horiz-adv-x="1110" d="M53 0l291 1456h351q211 0 336 -183t72 -450l-42 -207q-59 -297 -214 -456.5t-378 -159.5h-416zM514 1300l-229 -1146h209q130 0 227.5 126.5t139.5 335.5l42 210q42 214 -27 344t-218 130h-144z" />
<glyph unicode="E" horiz-adv-x="981" d="M900 676h-511l-104 -522h593l-31 -154h-794l291 1456h788l-31 -156h-587l-94 -469h511z" />
<glyph unicode="F" horiz-adv-x="983" d="M894 647h-511l-129 -647h-201l291 1456h795l-31 -156h-594l-100 -498h511z" />
<glyph unicode="G" horiz-adv-x="1152" d="M973 207q-65 -87 -186.5 -157.5t-288.5 -70.5q-205 0 -318 141.5t-62 393.5l86 432q53 270 204 400.5t367 130.5q199 0 296 -115t65 -314l-2 -5h-191q22 136 -25.5 207t-170.5 71q-117 0 -212 -97t-130 -276l-87 -434q-40 -199 17 -290t194 -91q90 0 154 36.5t100 89.5 l66 331h-231l29 147h432z" />
<glyph unicode="H" horiz-adv-x="1198" d="M974 0h-199l128 642h-521l-128 -642h-201l291 1456h201l-132 -659h521l132 659h199z" />
<glyph unicode="I" horiz-adv-x="502" d="M265 0h-200l291 1456h200z" />
<glyph unicode="J" horiz-adv-x="954" d="M827 1456h200l-208 -1039q-43 -215 -168.5 -326.5t-294.5 -111.5q-167 0 -255 110.5t-45 318.5h201q-30 -147 6 -211t124 -64q71 0 138.5 78t93.5 206z" />
<glyph unicode="K" horiz-adv-x="1027" d="M479 654h-107l-130 -654h-201l291 1456h201l-127 -632h116l433 632h260l-560 -724l284 -732h-230z" />
<glyph unicode="L" horiz-adv-x="919" d="M285 154h538l-31 -154h-739l291 1456h201z" />
<glyph unicode="M" horiz-adv-x="1423" d="M597 1456l79 -1186l6 -1l554 1187h259l-291 -1456h-199l112 559l126 541l-6 2l-546 -1102h-132l-105 1099h-6l-89 -540l-112 -559h-199l291 1456h258z" />
<glyph unicode="N" horiz-adv-x="1199" d="M974 0h-200l-301 1069l-6 -1l-213 -1068h-201l291 1456h201l302 -1065l6 1l212 1064h200z" />
<glyph unicode="O" horiz-adv-x="1152" d="M1091 596q-59 -293 -213 -455t-372 -162q-201 0 -314.5 181.5t-60.5 446.5l51 252q58 293 207 455.5t363 162.5q205 0 323 -183t66 -447zM942 849q42 214 -20.5 341t-201.5 127q-117 0 -207 -125.5t-131 -330.5l-51 -254q-43 -217 15 -343.5t191 -126.5q122 0 217 126 t137 333z" />
<glyph unicode="P" horiz-adv-x="1093" d="M369 574l-115 -574h-201l291 1456h460q182 0 274.5 -124t54.5 -317q-42 -212 -174 -326.5t-331 -114.5h-259zM400 730h259q99 0 174 82.5t99 200.5q26 131 -12 209t-147 78h-259z" />
<glyph unicode="Q" horiz-adv-x="1167" d="M1093 596q-33 -161 -95 -284t-149 -202l154 -220l-152 -111l-160 233q-43 -16 -89 -24.5t-94 -8.5q-201 0 -314.5 181.5t-60.5 446.5l51 252q58 293 207 455.5t363 162.5q205 0 323 -183t66 -447zM944 849q42 214 -20.5 341t-201.5 127q-117 0 -207 -125.5t-131 -330.5 l-51 -254q-43 -217 15 -343.5t191 -126.5q122 0 217 126t137 333z" />
<glyph unicode="R" horiz-adv-x="1118" d="M379 627l-125 -627h-201l291 1455h435q185 0 277.5 -109t53.5 -305q-25 -123 -91.5 -206.5t-172.5 -128.5q93 -39 124 -127.5t7 -213.5l-25 -127q-15 -70 -13.5 -126t27.5 -89l-5 -23h-207q-26 33 -22 99t20 141l25 123q25 129 -12.5 196.5t-128.5 67.5h-257zM410 782 h224q107 0 178.5 68t95.5 187q27 132 -12 197.5t-148 65.5h-234z" />
<glyph unicode="S" horiz-adv-x="1034" d="M756 333q23 117 -21 182t-178 132q-190 76 -272 180.5t-44 292.5q34 173 158 265t297 92q189 0 291.5 -120t61.5 -328h-201q26 134 -24 213t-159 79q-77 0 -141.5 -58.5t-80.5 -140.5q-24 -120 18.5 -181t191.5 -132q185 -77 262.5 -182t40.5 -292q-36 -178 -160.5 -267 t-303.5 -89q-187 0 -311 107.5t-74 333.5l2 5h193q-33 -164 36.5 -228t184.5 -64q77 0 146.5 57.5t86.5 142.5z" />
<glyph unicode="T" horiz-adv-x="979" d="M1117 1300h-353l-260 -1300h-200l260 1300h-351l31 156h904z" />
<glyph unicode="U" horiz-adv-x="1115" d="M1209 1456l-202 -1009q-48 -241 -192 -354.5t-349 -113.5q-185 0 -288.5 122.5t-58.5 345.5l202 1009h198l-202 -1009q-33 -166 16.5 -240t163.5 -74q109 0 193.5 77.5t116.5 236.5l202 1009h200z" />
<glyph unicode="V" horiz-adv-x="1080" d="M500 322l6 -79l6 -1l31 79l460 1135h212l-649 -1456h-193l-182 1456h213z" />
<glyph unicode="W" horiz-adv-x="1487" d="M1052 432h6l346 1024h196l-511 -1456h-185l-67 1020l-6 1l-396 -1021h-184l-44 1456h196l20 -1023l6 -1l394 1024h159z" />
<glyph unicode="X" horiz-adv-x="1073" d="M606 889l6 -1l332 568h236l-474 -721l256 -735h-240l-156 581h-6l-342 -581h-237l485 735l-243 721h234z" />
<glyph unicode="Y" horiz-adv-x="1061" d="M594 762l6 -1l417 695h223l-594 -934l-104 -522h-199l108 539l-218 917h224z" />
<glyph unicode="Z" horiz-adv-x="953" d="M250 154h583l-31 -154h-784l2 125l745 1176h-515l31 155h743l-24 -121z" />
<glyph unicode="[" horiz-adv-x="495" d="M639 1519h-138l-270 -1686h138l-24 -152h-341l319 1991h341z" />
<glyph unicode="\" horiz-adv-x="715" d="M234 1456h194l175 -1581h-195z" />
<glyph unicode="]" horiz-adv-x="495" d="M220 1672h344l-319 -1991h-344l24 152h141l270 1686h-141z" />
<glyph unicode="^" horiz-adv-x="734" d="M284 729h-169l386 727h143l95 -727h-167l-45 444v42l-6 1l-17 -43z" />
<glyph unicode="_" horiz-adv-x="769" d="M638 -152h-738l30 152h738z" />
<glyph unicode="`" horiz-adv-x="580" d="M590 1211h-166l-182 266h230z" />
<glyph unicode="a" horiz-adv-x="922" d="M552 0q-2 40 -2 74t4 67q-57 -72 -129.5 -117t-149.5 -45q-122 0 -183.5 88t-32.5 230q33 165 148.5 248.5t301.5 83.5h140l22 111q20 105 -8.5 157.5t-105.5 52.5q-63 0 -116 -50.5t-67 -124.5l-191 1l-2 6q22 133 139.5 226.5t279.5 93.5q144 0 225 -96t47 -268 l-101 -502q-13 -66 -17 -122t1 -114h-203zM352 135q61 0 124.5 42t102.5 104l44 222h-142q-80 0 -142 -61t-78 -144q-16 -78 7 -120.5t84 -42.5z" />
<glyph unicode="b" d="M895 490q-52 -257 -156.5 -384t-269.5 -127q-73 0 -131 40.5t-93 112.5l-42 -132h-174l312 1560h201l-113 -560q49 50 107 76t124 26q154 0 222 -168.5t17 -422.5zM699 511q39 199 14 316t-128 117q-58 0 -108.5 -44.5t-90.5 -117.5l-104 -521q15 -60 55 -92.5t106 -32.5 q94 0 155.5 92.5t96.5 261.5z" />
<glyph unicode="c" horiz-adv-x="889" d="M426 133q68 0 127 58.5t75 156.5h179l2 -6q-23 -159 -140.5 -261t-266.5 -102q-186 0 -270.5 138.5t-51.5 347.5l24 149q35 219 158.5 353.5t318.5 134.5q152 0 235 -111t55 -288h-187q18 112 -17 177.5t-111 65.5q-104 0 -166.5 -95t-84.5 -237l-24 -149 q-24 -152 5.5 -242t139.5 -90z" />
<glyph unicode="d" d="M103 548q55 277 163 415.5t273 138.5q67 0 122 -32.5t91 -92.5l117 583h200l-312 -1560h-175l8 96q-52 -58 -114 -87.5t-132 -29.5q-150 0 -221.5 157t-24.5 391zM299 527q-37 -181 -8 -286t129 -105q55 0 104 39t89 107l106 530q-17 61 -55.5 96.5t-98.5 35.5 q-92 0 -158.5 -107.5t-102.5 -288.5z" />
<glyph unicode="e" horiz-adv-x="899" d="M417 -21q-178 0 -271 135t-59 342l25 158q35 220 163.5 354t297.5 134q170 0 247.5 -127t44.5 -336l-22 -140h-550l-7 -43q-24 -146 18 -234.5t150 -88.5q77 0 140 27t122 77l43 -126q-58 -58 -146 -95t-196 -37zM548 946q-78 0 -141.5 -86t-90.5 -216h351l7 41 q19 119 -11.5 190t-114.5 71z" />
<glyph unicode="f" horiz-adv-x="607" d="M97 0l187 937h-133l29 145h133l28 139q37 184 132.5 272t242.5 88q26 0 55 -6t63 -15l-49 -149q-15 5 -34.5 8t-42.5 3q-59 0 -103 -53t-63 -148l-28 -139h177l-29 -145h-177l-187 -937h-201z" />
<glyph unicode="g" d="M103 548q54 276 163.5 415t275.5 139q74 0 132 -37t92 -105l38 122h173l-212 -1063q-46 -224 -173.5 -340t-320.5 -116q-61 0 -133.5 21.5t-122.5 56.5l73 152q42 -31 96.5 -48.5t116.5 -17.5q97 0 166 78.5t97 214.5l11 55q-49 -48 -106 -72t-121 -24q-151 0 -224 157.5 t-26 390.5zM299 527q-36 -180 -6.5 -285.5t130.5 -105.5q57 0 105.5 37.5t87.5 105.5l107 536q-17 60 -55.5 94.5t-99.5 34.5q-92 0 -160 -108t-104 -288z" />
<glyph unicode="h" d="M418 958l5 -4q52 71 121 109.5t146 38.5q130 0 190 -109.5t16 -330.5l-132 -662h-201l133 664q32 160 4.5 220t-109.5 60q-54 0 -107 -37t-96 -100l-161 -807h-201l312 1560h201z" />
<glyph unicode="i" horiz-adv-x="455" d="M242 0h-200l216 1082h200zM515 1366h-200l39 194h200z" />
<glyph unicode="j" horiz-adv-x="459" d="M466 1082l-231 -1156q-38 -185 -129 -274t-229 -89q-26 0 -49.5 4.5t-49.5 13.5l42 155q15 -6 33.5 -10t34.5 -4q47 0 87 51.5t60 152.5l231 1156h200zM520 1369h-201l38 191h201z" />
<glyph unicode="k" horiz-adv-x="893" d="M409 496h-80l-99 -496h-200l312 1560h200l-182 -909h78l305 431h227l3 -5l-388 -481l220 -596h-233z" />
<glyph unicode="l" horiz-adv-x="455" d="M242 0h-200l312 1560h200z" />
<glyph unicode="m" horiz-adv-x="1462" d="M412 946q56 76 128.5 116t159.5 40q77 0 128.5 -49t65.5 -146q58 93 135 144t170 51q123 0 179.5 -115.5t11.5 -343.5l-129 -643h-201l129 644q35 178 11.5 239t-101.5 61q-59 0 -113.5 -54.5t-93.5 -141.5q-4 -28 -6 -41.5t-5 -28.5l-136 -678h-200l129 644 q34 172 9.5 236t-100.5 64q-56 0 -105 -38t-89 -104l-160 -802h-199l216 1082h183z" />
<glyph unicode="n" d="M408 933q59 82 132.5 125.5t156.5 43.5q127 0 185 -107t15 -324l-134 -671h-201l134 669q31 161 4.5 218t-110.5 57q-54 0 -106.5 -39.5t-96.5 -107.5l-159 -797h-201l216 1082h184z" />
<glyph unicode="o" d="M105 609q35 224 163 358.5t318 134.5q179 0 268 -140t55 -353l-22 -138q-36 -225 -163.5 -358.5t-315.5 -133.5q-181 0 -270.5 139t-54.5 353zM283 471q-25 -154 10 -246t139 -92q96 0 163 96t91 242l22 138q24 151 -10.5 244t-136.5 93q-99 0 -166 -96t-90 -241z" />
<glyph unicode="p" d="M893 487q-51 -255 -156 -381.5t-268 -126.5q-71 0 -127 30t-93 86l-102 -511h-201l299 1498h180l-9 -94q50 56 111.5 85t131.5 29q152 0 220.5 -170t18.5 -424zM697 508q39 196 10.5 316t-128.5 120q-54 0 -102.5 -40t-87.5 -107l-110 -551q17 -55 55.5 -84t102.5 -29 q92 0 157 94.5t98 259.5z" />
<glyph unicode="q" d="M103 548q55 277 163 415.5t273 138.5q71 0 127.5 -34t91.5 -97l36 111h174l-299 -1498h-201l99 495q-49 -49 -105 -74.5t-118 -25.5q-150 0 -221.5 157t-24.5 391zM299 527q-37 -181 -8 -287.5t129 -106.5q53 0 99.5 35t84.5 98l113 564q-18 54 -56 85t-96 31 q-92 0 -158.5 -108.5t-102.5 -289.5z" />
<glyph unicode="r" horiz-adv-x="616" d="M658 911l-91 5q-54 0 -100.5 -39t-82.5 -109l-154 -768h-201l216 1082h183l-15 -144l5 -3q45 79 104 123t127 44q18 0 37.5 -3.5t31.5 -8.5z" />
<glyph unicode="s" horiz-adv-x="860" d="M565 271q10 65 -21 107t-131 95q-149 64 -215 138t-47 191q21 129 128.5 214.5t262.5 85.5q153 0 236 -95.5t57 -235.5l-2 -5h-193q12 80 -19 134t-102 54q-67 0 -115.5 -44t-56.5 -100q-11 -64 17 -98.5t133 -93.5q153 -61 219 -138.5t47 -198.5q-23 -139 -132 -220.5 t-270 -81.5q-165 0 -251 103t-59 237l2 5h188q-14 -105 28.5 -151.5t117.5 -46.5q70 0 118.5 41t59.5 104z" />
<glyph unicode="t" horiz-adv-x="612" d="M553 1351l-54 -269h159l-29 -145h-159l-128 -644q-18 -90 -2 -122.5t55 -32.5q21 0 42 3t48 9l-8 -140q-36 -14 -78 -22.5t-86 -8.5q-105 0 -154.5 76.5t-16.5 237.5l128 644h-133l29 145h133l54 269h200z" />
<glyph unicode="u" d="M584 0l15 133q-57 -76 -127.5 -115t-153.5 -39q-131 0 -191 115t-13 349l127 639h200l-128 -641q-36 -178 -13 -241.5t98 -63.5q66 0 121 36.5t98 103.5l161 806h201l-216 -1082h-179z" />
<glyph unicode="v" horiz-adv-x="863" d="M400 325l2 -76h6l27 76l292 757h207l-481 -1082h-177l-136 1082h208z" />
<glyph unicode="w" horiz-adv-x="1256" d="M867 363l6 -1l276 720h192l-452 -1082h-164l-39 708l-6 2l-321 -710h-166l-19 1082h191l-7 -711l6 -2l321 713h144z" />
<glyph unicode="x" horiz-adv-x="863" d="M465 688l6 -1l220 395h229l-357 -534l193 -548h-228l-98 407l-6 1l-228 -408h-228l368 548l-187 534h227z" />
<glyph unicode="y" horiz-adv-x="863" d="M397 373l1 -60l6 -1l346 770h218l-610 -1250q-57 -111 -135.5 -190t-195.5 -79q-23 0 -50.5 5.5t-53.5 12.5l52 150q11 -2 28.5 -4t27.5 -2q51 0 96.5 52.5t75.5 117.5l55 108l-102 1079h218z" />
<glyph unicode="z" horiz-adv-x="836" d="M239 154h472l-31 -154h-687l26 128l607 797h-440l31 157h660l-25 -126z" />
<glyph unicode="{" horiz-adv-x="578" d="M370 -373q-148 55 -195.5 175t-19.5 289l34 212q18 116 -9.5 177t-106.5 61l18 116l5 30q75 0 124.5 62.5t67.5 173.5l34 215q28 177 112 292.5t248 166.5l6 -1l19 -107q-83 -36 -129.5 -126.5t-67.5 -224.5l-34 -215q-18 -111 -69.5 -191t-136.5 -121q69 -44 96 -125 t11 -183l-34 -212q-23 -139 -5.5 -225.5t91.5 -123.5z" />
<glyph unicode="|" horiz-adv-x="440" d="M175 -270h-135l276 1726h135z" />
<glyph unicode="}" horiz-adv-x="578" d="M-77 -264q83 37 130 126.5t70 222.5l34 212q17 113 69.5 193t141.5 119q-74 41 -101.5 121.5t-10.5 186.5l34 215q22 138 3.5 226t-90.5 125l58 114q147 -55 194.5 -174.5t20.5 -290.5l-34 -215q-19 -117 8.5 -176.5t107.5 -59.5l-6 -37l-17 -109q-76 0 -125.5 -64 t-66.5 -174l-34 -212q-29 -175 -113 -291t-247 -167l-6 1z" />
<glyph unicode="~" horiz-adv-x="1119" d="M1061 745q-24 -147 -110 -245t-193 -98q-68 0 -122.5 34.5t-108.5 107.5q-35 50 -66 74t-69 24q-45 0 -88.5 -56.5t-56.5 -139.5l-135 20q23 147 106.5 242t192.5 95q65 0 122.5 -36.5t110.5 -104.5q33 -52 63.5 -75t69.5 -23q45 0 88.5 58.5t57.5 142.5z" />
<glyph unicode="&#xa1;" horiz-adv-x="467" d="M169 -374h-201l194 970h201zM418 869h-201l42 213h201z" />
<glyph unicode="&#xa2;" horiz-adv-x="957" d="M447 133q68 0 127 58.5t75 156.5h179l3 -6q-21 -143 -120 -241t-231 -117l-45 -229h-161l47 237q-134 37 -191 166.5t-29 306.5l24 149q31 201 139 332t278 152l45 220h161l-47 -231q108 -34 161 -137t30 -247h-187q18 112 -17 177.5t-111 65.5q-104 0 -166.5 -95 t-84.5 -237l-24 -149q-24 -152 5.5 -242t139.5 -90z" />
<glyph unicode="&#xa3;" horiz-adv-x="998" d="M450 618l-23 -141q-20 -98 -59 -181t-93 -142h597l-31 -154h-795l31 154h6q41 13 80 112.5t61 206.5l24 145h-130l30 155h126l45 263q44 219 158.5 330t275.5 111q157 0 234 -109.5t42 -285.5h-201q26 131 -5.5 185t-100.5 54q-63 0 -119.5 -76t-82.5 -209l-44 -263h308 l-30 -155h-304z" />
<glyph unicode="&#xa4;" horiz-adv-x="1240" d="M871 105q-77 -61 -163 -93t-174 -32q-81 0 -152 34.5t-124 98.5l-143 -139l-92 118l158 152q-32 79 -39 171.5t14 192.5q21 112 65.5 209t107.5 176l-95 151l139 120l89 -142q74 54 156.5 83t166.5 29q77 0 145.5 -33t122.5 -92l159 156l91 -121l-170 -165 q32 -80 40 -174.5t-12 -196.5q-22 -107 -63.5 -200.5t-98.5 -170.5l93 -145l-138 -119zM307 608q-43 -211 32.5 -343t225.5 -132q136 0 271.5 140t174.5 335q41 209 -34 340.5t-223 131.5q-137 0 -273 -140t-174 -332z" />
<glyph unicode="&#xa5;" horiz-adv-x="1032" d="M592 835l6 -1l378 622h223l-478 -730h232l-31 -155h-282l-26 -132h282l-31 -155h-282l-57 -284h-201l57 284h-286l31 155h286l26 132h-286l31 155h241l-185 730h223z" />
<glyph unicode="&#xa6;" horiz-adv-x="436" d="M-18 -270l157 784h188l-157 -784h-188zM364 698h-188l151 758h188z" />
<glyph unicode="&#xa7;" horiz-adv-x="1052" d="M956 444q-20 -99 -73.5 -167t-135.5 -106q53 -50 70.5 -119t-1.5 -170q-37 -183 -163.5 -274.5t-317.5 -91.5q-173 0 -281 103.5t-64 324.5l200 2q-31 -155 22.5 -215t153.5 -60q90 0 160 59.5t89 149.5q18 95 -23 142.5t-182 106.5q-183 63 -257.5 154t-40.5 263 q19 97 72.5 166t135.5 108q-53 50 -70.5 119.5t3.5 169.5q35 177 163.5 272.5t318.5 95.5q180 0 272 -114.5t52 -315.5h-200q25 125 -14.5 199.5t-140.5 74.5q-97 0 -165 -60t-85 -150q-21 -103 17.5 -149.5t184.5 -104.5q186 -66 259.5 -154.5t40.5 -258.5zM551 697 q-32 10 -57.5 20t-46.5 21q-51 -23 -85.5 -71t-46.5 -111q-22 -107 16 -154.5t184 -109.5q27 -10 51.5 -20t47.5 -19q53 22 91 70t51 111q19 98 -23 149t-182 114z" />
<glyph unicode="&#xa8;" horiz-adv-x="914" d="M895 1271h-202l30 185h202zM485 1271h-202l30 185h202z" />
<glyph unicode="&#xa9;" horiz-adv-x="1383" d="M974 596l2 -6q-22 -156 -107 -232t-218 -76q-130 0 -195 107.5t-37 279.5l19 119q28 179 123.5 283t232.5 104q126 0 190.5 -81.5t41.5 -232.5h-127q16 106 -15 152t-109 46q-77 0 -134.5 -76t-76.5 -194l-19 -120q-21 -128 11 -200t114 -72q74 0 121.5 47.5t63.5 151.5 h119zM235 729q-46 -281 70 -462t326 -181q199 0 379 187.5t223 455.5q44 279 -72 458.5t-325 179.5q-200 0 -379.5 -186.5t-221.5 -451.5zM135 729q52 327 258.5 537t459.5 210q239 0 384 -217.5t96 -529.5q-53 -328 -260.5 -539t-458.5 -211q-240 0 -385 218.5t-94 531.5z " />
<glyph unicode="&#xaa;" horiz-adv-x="762" d="M559 706q-2 24 -1.5 48.5t3.5 49.5q-37 -49 -88 -80.5t-113 -31.5q-89 0 -132.5 62.5t-22.5 165.5q23 115 101 170.5t212 55.5h108l12 56q15 75 -1 112t-62 37q-50 0 -88 -32t-49 -88l-127 12l-2 6q17 104 96.5 166t194.5 62q101 0 153 -72.5t26 -203.5l-63 -314 q-11 -54 -15 -96.5t-1 -84.5h-141zM419 814q37 0 88 33t74 72l25 124h-108q-57 0 -100 -35.5t-52 -83.5q-12 -56 6 -83t67 -27z" />
<glyph unicode="&#xab;" horiz-adv-x="831" d="M268 516l120 -393h-136l-154 385l1 6l1 7l1 6l308 384h136zM562 516l120 -393h-136l-154 385l1 6l1 7l1 6l308 384h136z" />
<glyph unicode="&#xac;" horiz-adv-x="938" d="M832 649h-1l-53 -271h-159l53 271h-512l28 143h672z" />
<glyph unicode="&#xad;" horiz-adv-x="584" d="M526 542h-427l31 155h427z" />
<glyph unicode="&#xae;" horiz-adv-x="1384" d="M134 729q52 327 259 537t460 210q239 0 384 -217.5t96 -529.5q-53 -328 -260.5 -539t-458.5 -211q-240 0 -385.5 218.5t-94.5 531.5zM234 729q-46 -281 70 -462t327 -181q199 0 378.5 187.5t222.5 455.5q44 279 -71.5 458.5t-324.5 179.5q-201 0 -380.5 -186.5 t-221.5 -451.5zM600 660l-55 -344h-124l136 850h236q123 0 187 -66t45 -189q-11 -65 -46.5 -111.5t-95.5 -76.5q51 -28 68.5 -81.5t6.5 -126.5l-9 -56q-7 -43 -9 -74.5t2 -52.5l-2 -16h-126q-4 22 0.5 63.5t11.5 80.5l8 54q12 79 -10 112.5t-88 33.5h-136zM618 776h123 q59 0 104.5 35t55.5 97q13 80 -15 111.5t-112 31.5h-112z" />
<glyph unicode="&#xaf;" horiz-adv-x="857" d="M878 1324h-610l21 132h610z" />
<glyph unicode="&#xb0;" horiz-adv-x="685" d="M279 1216q22 113 102 187t173 74q84 0 136.5 -78.5t31.5 -182.5q-23 -115 -101 -186t-170 -71q-86 0 -140 75.5t-32 181.5zM394 1216q-13 -63 10.5 -100.5t70.5 -37.5q41 0 80.5 39.5t51.5 98.5q13 64 -9.5 102.5t-67.5 38.5q-43 0 -84 -41t-52 -100z" />
<glyph unicode="&#xb1;" horiz-adv-x="953" d="M643 873h292l-25 -157h-292l-66 -414h-180l66 414h-301l25 157h301l66 407h180zM736 21h-673l31 155h673z" />
<glyph unicode="&#xb2;" horiz-adv-x="723" d="M648 667h-491l24 121l301 267q64 60 87.5 99t32.5 84q11 56 -3 87t-58 31q-45 0 -79.5 -36t-44.5 -90h-147l-2 6q16 107 98 175t201 68q105 0 158.5 -64t31.5 -178q-17 -84 -67.5 -141t-169.5 -159l-142 -143l3 -6h291z" />
<glyph unicode="&#xb3;" horiz-adv-x="724" d="M392 1130h98q48 0 80.5 30.5t43.5 84.5q10 51 -9 80.5t-69 29.5q-41 0 -74 -28t-41 -72h-145l-2 6q16 104 96 160.5t188 56.5q111 0 172.5 -60.5t40.5 -167.5q-12 -61 -50.5 -106.5t-94.5 -69.5q51 -24 73.5 -72t9.5 -114q-24 -118 -106.5 -175.5t-204.5 -57.5 q-105 0 -171 59.5t-39 171.5l2 5h149q-12 -55 9.5 -85t72.5 -30q47 0 85 31.5t49 84.5q13 68 -9 96.5t-79 28.5h-98l16 79z" />
<glyph unicode="&#xb4;" horiz-adv-x="605" d="M442 1478h221l2 -6l-269 -260h-159z" />
<glyph unicode="&#xb5;" horiz-adv-x="1007" d="M461 1082l-125 -626q-40 -199 -13.5 -260.5t107.5 -61.5q66 0 118.5 38t90.5 109l160 801h200l-216 -1082h-184l10 77q-45 -49 -98 -73.5t-114 -24.5q-46 0 -82.5 16t-60.5 49l-92 -460h-200l299 1498h200z" />
<glyph unicode="&#xb6;" horiz-adv-x="868" d="M441 0l104 520h-67q-175 0 -259 132t-43 336q43 220 170.5 344t318.5 124h268l-291 -1456h-201z" />
<glyph unicode="&#xb7;" horiz-adv-x="496" d="M377 606h-200l43 214h200z" />
<glyph unicode="&#xb8;" horiz-adv-x="454" d="M188 2l-21 -58q50 -10 76 -51t10 -121q-21 -104 -99 -158t-203 -52l-5 3l16 106q45 0 81 25.5t46 75.5q10 53 -12 71t-88 25l51 134h148z" />
<glyph unicode="&#xb9;" horiz-adv-x="482" d="M401 665h-157l133 666l-102 -3l25 126l263 23z" />
<glyph unicode="&#xba;" horiz-adv-x="779" d="M251 1143q32 156 124 245t222 89q119 0 180 -95t32 -239l-23 -117q-32 -158 -123.5 -246t-220.5 -88q-120 0 -182 94t-32 240zM369 1026q-20 -100 4 -155.5t94 -55.5q61 0 110.5 59.5t68.5 151.5l23 117q20 96 -4.5 152t-92.5 56q-62 0 -112 -60t-68 -148z" />
<glyph unicode="&#xbb;" horiz-adv-x="831" d="M325 946l154 -386l-2 -6h1l-3 -13l-308 -386h-136l276 395l-118 396h136zM631 946l154 -386l-2 -6h1l-3 -13l-308 -386h-136l276 395l-118 396h136z" />
<glyph unicode="&#xbc;" horiz-adv-x="1267" d="M441 664h-157l133 666l-102 -3l25 126l263 23zM289 121l-91 63l801 1138l89 -63zM1080 277h91l-24 -122h-91l-31 -155h-155l31 155h-333l11 95l450 551h156zM745 277h180l63 316l-5 3l-12 -16z" />
<glyph unicode="&#xbd;" horiz-adv-x="1335" d="M292 121l-91 63l801 1138l89 -63zM434 664h-157l133 666l-102 -3l25 126l263 23zM1130 0h-491l24 121l301 267q64 60 87.5 99t32.5 84q11 56 -3 87t-58 31q-45 0 -79.5 -36t-44.5 -90h-147l-2 6q16 107 98 175t201 68q105 0 158.5 -64t31.5 -178q-17 -84 -67.5 -141 t-169.5 -159l-142 -143l3 -6h291z" />
<glyph unicode="&#xbe;" horiz-adv-x="1429" d="M451 121l-91 63l801 1138l89 -63zM1231 277h91l-24 -122h-91l-31 -155h-155l31 155h-333l11 95l450 551h156zM896 277h180l63 316l-5 3l-12 -16zM394 1131h98q48 0 80.5 30.5t43.5 84.5q10 51 -9 80.5t-69 29.5q-41 0 -74 -28t-41 -72h-145l-2 6q16 104 96 160.5 t188 56.5q111 0 172.5 -60.5t40.5 -167.5q-12 -61 -50.5 -106.5t-94.5 -69.5q51 -24 73.5 -72t9.5 -114q-24 -118 -106.5 -175.5t-204.5 -57.5q-105 0 -171 59.5t-39 171.5l2 5h149q-12 -55 9.5 -85t72.5 -30q47 0 85 31.5t49 84.5q13 68 -9 96.5t-79 28.5h-98l16 79z" />
<glyph unicode="&#xbf;" horiz-adv-x="853" d="M619 673q-29 -134 -67 -192t-147 -150q-85 -91 -134 -163t-68 -168q-24 -117 5.5 -175t109.5 -58q60 0 120.5 57t81.5 156h192l2 -6q-33 -173 -152.5 -270.5t-275.5 -97.5q-160 0 -239.5 106.5t-44.5 284.5q27 137 101 235t197 208q56 50 77.5 96.5t40.5 136.5h201z M496 1082h204l-39 -199h-204z" />
<glyph unicode="&#xc0;" horiz-adv-x="1098" d="M757 368h-434l-174 -368h-203l717 1456h193l131 -1456h-203zM400 529h345l-44 620l-6 1zM896 1561h-166l-182 266h230z" />
<glyph unicode="&#xc1;" horiz-adv-x="1098" d="M757 368h-434l-174 -368h-203l717 1456h193l131 -1456h-203zM400 529h345l-44 620l-6 1zM903 1824h221l2 -6l-269 -260h-159z" />
<glyph unicode="&#xc2;" horiz-adv-x="1098" d="M757 368h-434l-174 -368h-203l717 1456h193l131 -1456h-203zM400 529h345l-44 620l-6 1zM1085 1621l-5 -22h-161l-85 151l-146 -151h-158l5 23l260 232h118z" />
<glyph unicode="&#xc3;" horiz-adv-x="1098" d="M757 368h-434l-174 -368h-203l717 1456h193l131 -1456h-203zM400 529h345l-44 620l-6 1zM1134 1838q-16 -96 -72.5 -157t-130.5 -61q-54 0 -114.5 49t-102.5 49q-30 0 -57.5 -34t-34.5 -82l-105 28q15 94 72.5 157t131.5 63q43 0 109 -49.5t108 -49.5q30 0 58 34.5 t36 83.5z" />
<glyph unicode="&#xc4;" horiz-adv-x="1098" d="M757 368h-434l-174 -368h-203l717 1456h193l131 -1456h-203zM400 529h345l-44 620l-6 1zM1113 1617h-202l30 185h202zM703 1617h-202l30 185h202z" />
<glyph unicode="&#xc5;" horiz-adv-x="1098" d="M757 368h-434l-174 -368h-203l717 1456h193l131 -1456h-203zM400 529h345l-44 620l-6 1zM656 1734q16 83 76.5 133.5t135.5 50.5q67 0 109 -54t27 -130q-17 -85 -76 -133t-133 -48q-69 0 -112 51.5t-27 129.5zM747 1734q-9 -44 10 -70t55 -26q33 0 62 27t38 69 q9 46 -8 72.5t-53 26.5q-33 0 -64.5 -28.5t-39.5 -70.5z" />
<glyph unicode="&#xc6;" horiz-adv-x="1576" d="M1439 0h-722l60 361h-389l-228 -361h-239l959 1456h801l-31 -157h-516l-78 -467h434l-31 -155h-429l-87 -522h527zM805 531l109 652l-5 2l-414 -654h310z" />
<glyph unicode="&#xc7;" horiz-adv-x="1041" d="M1004 459l2 -6q-58 -227 -182 -350.5t-323 -123.5q-196 0 -309.5 180t-59.5 444l52 260q58 293 201 453.5t347 160.5q196 0 304 -135.5t80 -363.5h-199q18 164 -31.5 253.5t-173.5 89.5q-108 0 -197.5 -128t-129.5 -328l-52 -262q-44 -215 7.5 -342.5t177.5 -127.5 q109 0 177.5 79t116.5 247h192zM526 -3l-21 -58q50 -10 76 -51t10 -121q-21 -104 -99 -158t-203 -52l-5 3l16 106q45 0 81 25.5t46 75.5q10 53 -12 71t-88 25l51 134h148z" />
<glyph unicode="&#xc8;" horiz-adv-x="981" d="M900 676h-511l-104 -522h593l-31 -154h-794l291 1456h788l-31 -156h-587l-94 -469h511zM835 1561h-166l-182 266h230z" />
<glyph unicode="&#xc9;" horiz-adv-x="981" d="M900 676h-511l-104 -522h593l-31 -154h-794l291 1456h788l-31 -156h-587l-94 -469h511zM842 1824h221l2 -6l-269 -260h-159z" />
<glyph unicode="&#xca;" horiz-adv-x="981" d="M900 676h-511l-104 -522h593l-31 -154h-794l291 1456h788l-31 -156h-587l-94 -469h511zM1024 1621l-5 -22h-161l-85 151l-146 -151h-158l5 23l260 232h118z" />
<glyph unicode="&#xcb;" horiz-adv-x="981" d="M900 676h-511l-104 -522h593l-31 -154h-794l291 1456h788l-31 -156h-587l-94 -469h511zM1052 1617h-202l30 185h202zM642 1617h-202l30 185h202z" />
<glyph unicode="&#xcc;" horiz-adv-x="502" d="M265 0h-200l291 1456h200zM579 1561h-166l-182 266h230z" />
<glyph unicode="&#xcd;" horiz-adv-x="502" d="M265 0h-200l291 1456h200zM584 1824h221l2 -6l-269 -260h-159z" />
<glyph unicode="&#xce;" horiz-adv-x="502" d="M265 0h-200l291 1456h200zM768 1621l-5 -22h-161l-85 151l-146 -151h-158l5 23l260 232h118z" />
<glyph unicode="&#xcf;" horiz-adv-x="502" d="M265 0h-200l291 1456h200zM796 1617h-202l30 185h202zM386 1617h-202l30 185h202z" />
<glyph unicode="&#xd0;" horiz-adv-x="1140" d="M725 1456q211 0 336 -183t72 -450l-42 -207q-59 -297 -214 -456.5t-378 -159.5h-416l134 670h-120l28 141h120l129 645h351zM628 670h-210l-103 -516h209q130 0 227.5 126.5t139.5 335.5l42 210q42 214 -27 344t-218 130h-144l-98 -489h210z" />
<glyph unicode="&#xd1;" horiz-adv-x="1199" d="M974 0h-200l-301 1069l-6 -1l-213 -1068h-201l291 1456h201l302 -1065l6 1l212 1064h200zM1163 1838q-16 -96 -72.5 -157t-130.5 -61q-54 0 -114.5 49t-102.5 49q-30 0 -57.5 -34t-34.5 -82l-105 28q15 94 72.5 157t131.5 63q43 0 109 -49.5t108 -49.5q30 0 58 34.5 t36 83.5z" />
<glyph unicode="&#xd2;" horiz-adv-x="1115" d="M1091 596q-59 -293 -213 -455t-372 -162q-201 0 -314.5 181.5t-60.5 446.5l51 252q58 293 207 455.5t363 162.5q205 0 323 -183t66 -447zM942 849q42 214 -20.5 341t-201.5 127q-117 0 -207 -125.5t-131 -330.5l-51 -254q-43 -217 15 -343.5t191 -126.5q122 0 217 126 t137 333zM889 1582h-166l-182 266h230z" />
<glyph unicode="&#xd3;" horiz-adv-x="1115" d="M1091 596q-59 -293 -213 -455t-372 -162q-201 0 -314.5 181.5t-60.5 446.5l51 252q58 293 207 455.5t363 162.5q205 0 323 -183t66 -447zM942 849q42 214 -20.5 341t-201.5 127q-117 0 -207 -125.5t-131 -330.5l-51 -254q-43 -217 15 -343.5t191 -126.5q122 0 217 126 t137 333zM896 1845h221l2 -6l-269 -260h-159z" />
<glyph unicode="&#xd4;" horiz-adv-x="1115" d="M1091 596q-59 -293 -213 -455t-372 -162q-201 0 -314.5 181.5t-60.5 446.5l51 252q58 293 207 455.5t363 162.5q205 0 323 -183t66 -447zM942 849q42 214 -20.5 341t-201.5 127q-117 0 -207 -125.5t-131 -330.5l-51 -254q-43 -217 15 -343.5t191 -126.5q122 0 217 126 t137 333zM1078 1642l-5 -22h-161l-85 151l-146 -151h-158l5 23l260 232h118z" />
<glyph unicode="&#xd5;" horiz-adv-x="1115" d="M1091 596q-59 -293 -213 -455t-372 -162q-201 0 -314.5 181.5t-60.5 446.5l51 252q58 293 207 455.5t363 162.5q205 0 323 -183t66 -447zM942 849q42 214 -20.5 341t-201.5 127q-117 0 -207 -125.5t-131 -330.5l-51 -254q-43 -217 15 -343.5t191 -126.5q122 0 217 126 t137 333zM1127 1859q-16 -96 -72.5 -157t-130.5 -61q-54 0 -114.5 49t-102.5 49q-30 0 -57.5 -34t-34.5 -82l-105 28q15 94 72.5 157t131.5 63q43 0 109 -49.5t108 -49.5q30 0 58 34.5t36 83.5z" />
<glyph unicode="&#xd6;" horiz-adv-x="1115" d="M1091 596q-59 -293 -213 -455t-372 -162q-201 0 -314.5 181.5t-60.5 446.5l51 252q58 293 207 455.5t363 162.5q205 0 323 -183t66 -447zM942 849q42 214 -20.5 341t-201.5 127q-117 0 -207 -125.5t-131 -330.5l-51 -254q-43 -217 15 -343.5t191 -126.5q122 0 217 126 t137 333zM1106 1638h-202l30 185h202zM696 1638h-202l30 185h202z" />
<glyph unicode="&#xd7;" horiz-adv-x="945" d="M61 344l347 338l-211 337l147 119l202 -322l331 322l99 -119l-346 -337l213 -338l-147 -119l-204 323l-332 -323z" />
<glyph unicode="&#xd8;" horiz-adv-x="1157" d="M1046 527q-56 -276 -208.5 -412t-371.5 -136q-62 0 -116 15t-98 45l-87 -129h-118l133 196q-58 72 -76.5 178.5t9.5 242.5l80 400q55 275 205.5 412.5t366.5 137.5q81 0 150.5 -27t120.5 -78l95 140h118l-153 -226q34 -71 42.5 -161.5t-12.5 -197.5zM311 527 q-16 -77 -18.5 -136t7.5 -96l6 -2l619 914q-23 56 -71.5 83t-120.5 27q-119 0 -211.5 -100.5t-129.5 -286.5zM927 930q7 35 11 66t4 52l-5 2l-586 -865q25 -25 61.5 -36.5t84.5 -11.5q122 0 216.5 100.5t132.5 289.5z" />
<glyph unicode="&#xd9;" horiz-adv-x="1115" d="M1209 1456l-202 -1009q-48 -241 -192 -354.5t-349 -113.5q-185 0 -288.5 122.5t-58.5 345.5l202 1009h198l-202 -1009q-33 -166 16.5 -240t163.5 -74q109 0 193.5 77.5t116.5 236.5l202 1009h200zM885 1561h-166l-182 266h230z" />
<glyph unicode="&#xda;" horiz-adv-x="1115" d="M1209 1456l-202 -1009q-48 -241 -192 -354.5t-349 -113.5q-185 0 -288.5 122.5t-58.5 345.5l202 1009h198l-202 -1009q-33 -166 16.5 -240t163.5 -74q109 0 193.5 77.5t116.5 236.5l202 1009h200zM892 1824h221l2 -6l-269 -260h-159z" />
<glyph unicode="&#xdb;" horiz-adv-x="1115" d="M1209 1456l-202 -1009q-48 -241 -192 -354.5t-349 -113.5q-185 0 -288.5 122.5t-58.5 345.5l202 1009h198l-202 -1009q-33 -166 16.5 -240t163.5 -74q109 0 193.5 77.5t116.5 236.5l202 1009h200zM1074 1621l-5 -22h-161l-85 151l-146 -151h-158l5 23l260 232h118z" />
<glyph unicode="&#xdc;" horiz-adv-x="1115" d="M1209 1456l-202 -1009q-48 -241 -192 -354.5t-349 -113.5q-185 0 -288.5 122.5t-58.5 345.5l202 1009h198l-202 -1009q-33 -166 16.5 -240t163.5 -74q109 0 193.5 77.5t116.5 236.5l202 1009h200zM1102 1617h-202l30 185h202zM692 1617h-202l30 185h202z" />
<glyph unicode="&#xdd;" horiz-adv-x="1061" d="M594 762l6 -1l417 695h223l-594 -934l-104 -522h-199l108 539l-218 917h224zM867 1820h221l2 -6l-269 -260h-159z" />
<glyph unicode="&#xde;" horiz-adv-x="1016" d="M537 1456l-58 -290h196q183 0 275 -121.5t56 -306.5q-41 -204 -171.5 -316.5t-330.5 -112.5h-196l-62 -309h-201l291 1456h201zM448 1011l-109 -547h196q100 0 173.5 80.5t95.5 191.5q24 121 -13.5 198t-146.5 77h-196z" />
<glyph unicode="&#xdf;" horiz-adv-x="1042" d="M237 0h-200l218 1088q45 230 165.5 342.5t290.5 112.5q129 0 205 -87.5t45 -245.5q-25 -123 -92 -223t-80 -166q-17 -85 84 -223.5t74 -277.5q-37 -182 -139 -261.5t-267 -79.5q-61 0 -126.5 20t-90.5 50l70 154q28 -28 72 -49.5t95 -21.5q68 0 118.5 50.5t67.5 130.5 q19 95 -84 231t-75 275q19 98 89.5 200.5t86.5 178.5q18 91 -10 141t-79 50q-68 0 -130.5 -80.5t-90.5 -222.5z" />
<glyph unicode="&#xe0;" horiz-adv-x="922" d="M552 0q-2 40 -2 74t4 67q-57 -72 -129.5 -117t-149.5 -45q-122 0 -183.5 88t-32.5 230q33 165 148.5 248.5t301.5 83.5h140l22 111q20 105 -8.5 157.5t-105.5 52.5q-63 0 -116 -50.5t-67 -124.5l-191 1l-2 6q22 133 139.5 226.5t279.5 93.5q144 0 225 -96t47 -268 l-101 -502q-13 -66 -17 -122t1 -114h-203zM352 135q61 0 124.5 42t102.5 104l44 222h-142q-80 0 -142 -61t-78 -144q-16 -78 7 -120.5t84 -42.5zM718 1239h-166l-182 266h230z" />
<glyph unicode="&#xe1;" horiz-adv-x="922" d="M552 0q-2 40 -2 74t4 67q-57 -72 -129.5 -117t-149.5 -45q-122 0 -183.5 88t-32.5 230q33 165 148.5 248.5t301.5 83.5h140l22 111q20 105 -8.5 157.5t-105.5 52.5q-63 0 -116 -50.5t-67 -124.5l-191 1l-2 6q22 133 139.5 226.5t279.5 93.5q144 0 225 -96t47 -268 l-101 -502q-13 -66 -17 -122t1 -114h-203zM352 135q61 0 124.5 42t102.5 104l44 222h-142q-80 0 -142 -61t-78 -144q-16 -78 7 -120.5t84 -42.5zM725 1502h221l2 -6l-269 -260h-159z" />
<glyph unicode="&#xe2;" horiz-adv-x="922" d="M552 0q-2 40 -2 74t4 67q-57 -72 -129.5 -117t-149.5 -45q-122 0 -183.5 88t-32.5 230q33 165 148.5 248.5t301.5 83.5h140l22 111q20 105 -8.5 157.5t-105.5 52.5q-63 0 -116 -50.5t-67 -124.5l-191 1l-2 6q22 133 139.5 226.5t279.5 93.5q144 0 225 -96t47 -268 l-101 -502q-13 -66 -17 -122t1 -114h-203zM352 135q61 0 124.5 42t102.5 104l44 222h-142q-80 0 -142 -61t-78 -144q-16 -78 7 -120.5t84 -42.5zM907 1299l-5 -22h-161l-85 151l-146 -151h-158l5 23l260 232h118z" />
<glyph unicode="&#xe3;" horiz-adv-x="922" d="M552 0q-2 40 -2 74t4 67q-57 -72 -129.5 -117t-149.5 -45q-122 0 -183.5 88t-32.5 230q33 165 148.5 248.5t301.5 83.5h140l22 111q20 105 -8.5 157.5t-105.5 52.5q-63 0 -116 -50.5t-67 -124.5l-191 1l-2 6q22 133 139.5 226.5t279.5 93.5q144 0 225 -96t47 -268 l-101 -502q-13 -66 -17 -122t1 -114h-203zM352 135q61 0 124.5 42t102.5 104l44 222h-142q-80 0 -142 -61t-78 -144q-16 -78 7 -120.5t84 -42.5zM956 1516q-16 -96 -72.5 -157t-130.5 -61q-54 0 -114.5 49t-102.5 49q-30 0 -57.5 -34t-34.5 -82l-105 28q15 94 72.5 157 t131.5 63q43 0 109 -49.5t108 -49.5q30 0 58 34.5t36 83.5z" />
<glyph unicode="&#xe4;" horiz-adv-x="922" d="M552 0q-2 40 -2 74t4 67q-57 -72 -129.5 -117t-149.5 -45q-122 0 -183.5 88t-32.5 230q33 165 148.5 248.5t301.5 83.5h140l22 111q20 105 -8.5 157.5t-105.5 52.5q-63 0 -116 -50.5t-67 -124.5l-191 1l-2 6q22 133 139.5 226.5t279.5 93.5q144 0 225 -96t47 -268 l-101 -502q-13 -66 -17 -122t1 -114h-203zM352 135q61 0 124.5 42t102.5 104l44 222h-142q-80 0 -142 -61t-78 -144q-16 -78 7 -120.5t84 -42.5zM935 1295h-202l30 185h202zM525 1295h-202l30 185h202z" />
<glyph unicode="&#xe5;" horiz-adv-x="922" d="M552 0q-2 40 -2 74t4 67q-57 -72 -129.5 -117t-149.5 -45q-122 0 -183.5 88t-32.5 230q33 165 148.5 248.5t301.5 83.5h140l22 111q20 105 -8.5 157.5t-105.5 52.5q-63 0 -116 -50.5t-67 -124.5l-191 1l-2 6q22 133 139.5 226.5t279.5 93.5q144 0 225 -96t47 -268 l-101 -502q-13 -66 -17 -122t1 -114h-203zM352 135q61 0 124.5 42t102.5 104l44 222h-142q-80 0 -142 -61t-78 -144q-16 -78 7 -120.5t84 -42.5zM478 1412q16 83 76.5 133.5t135.5 50.5q67 0 109 -54t27 -130q-17 -85 -76 -133t-133 -48q-69 0 -112 51.5t-27 129.5z M569 1412q-9 -44 10 -70t55 -26q33 0 62 27t38 69q9 46 -8 72.5t-53 26.5q-33 0 -64.5 -28.5t-39.5 -70.5z" />
<glyph unicode="&#xe6;" horiz-adv-x="1420" d="M933 -21q-100 0 -173.5 46.5t-112.5 131.5q-62 -76 -158.5 -127t-217.5 -51q-137 0 -204 89t-37 236q33 168 146.5 251t303.5 83h163l16 78q23 116 -1.5 173t-94.5 57q-69 0 -125.5 -55.5t-71.5 -133.5l-188 16l-1 6q25 149 138.5 236t279.5 87q80 0 142 -32t97 -93 q63 61 138 93t159 32q160 0 234.5 -131t32.5 -348l-25 -124h-552q-35 -174 1 -270t156 -96q74 0 136 27.5t129 75.5l32 -132q-53 -47 -143.5 -86t-198.5 -39zM340 127q50 0 117.5 40t110.5 91l48 243h-162q-82 0 -145 -59.5t-79 -141.5q-17 -85 9.5 -129t100.5 -44z M1100 946q-79 0 -144 -84.5t-100 -217.5l3 -5h344l6 30q26 131 1 204t-110 73z" />
<glyph unicode="&#xe7;" horiz-adv-x="889" d="M426 133q68 0 127 58.5t75 156.5h179l2 -6q-23 -159 -140.5 -261t-266.5 -102q-186 0 -270.5 138.5t-51.5 347.5l24 149q35 219 158.5 353.5t318.5 134.5q152 0 235 -111t55 -288h-187q18 112 -17 177.5t-111 65.5q-104 0 -166.5 -95t-84.5 -237l-24 -149 q-24 -152 5.5 -242t139.5 -90zM459 -3l-21 -58q50 -10 76 -51t10 -121q-21 -104 -99 -158t-203 -52l-5 3l16 106q45 0 81 25.5t46 75.5q10 53 -12 71t-88 25l51 134h148z" />
<glyph unicode="&#xe8;" horiz-adv-x="899" d="M417 -21q-178 0 -271 135t-59 342l25 158q35 220 163.5 354t297.5 134q170 0 247.5 -127t44.5 -336l-22 -140h-550l-7 -43q-24 -146 18 -234.5t150 -88.5q77 0 140 27t122 77l43 -126q-58 -58 -146 -95t-196 -37zM548 946q-78 0 -141.5 -86t-90.5 -216h351l7 41 q19 119 -11.5 190t-114.5 71zM683 1240h-166l-182 266h230z" />
<glyph unicode="&#xe9;" horiz-adv-x="899" d="M417 -21q-178 0 -271 135t-59 342l25 158q35 220 163.5 354t297.5 134q170 0 247.5 -127t44.5 -336l-22 -140h-550l-7 -43q-24 -146 18 -234.5t150 -88.5q77 0 140 27t122 77l43 -126q-58 -58 -146 -95t-196 -37zM548 946q-78 0 -141.5 -86t-90.5 -216h351l7 41 q19 119 -11.5 190t-114.5 71zM690 1503h221l2 -6l-269 -260h-159z" />
<glyph unicode="&#xea;" horiz-adv-x="899" d="M417 -21q-178 0 -271 135t-59 342l25 158q35 220 163.5 354t297.5 134q170 0 247.5 -127t44.5 -336l-22 -140h-550l-7 -43q-24 -146 18 -234.5t150 -88.5q77 0 140 27t122 77l43 -126q-58 -58 -146 -95t-196 -37zM548 946q-78 0 -141.5 -86t-90.5 -216h351l7 41 q19 119 -11.5 190t-114.5 71zM872 1300l-5 -22h-161l-85 151l-146 -151h-158l5 23l260 232h118z" />
<glyph unicode="&#xeb;" horiz-adv-x="899" d="M417 -21q-178 0 -271 135t-59 342l25 158q35 220 163.5 354t297.5 134q170 0 247.5 -127t44.5 -336l-22 -140h-550l-7 -43q-24 -146 18 -234.5t150 -88.5q77 0 140 27t122 77l43 -126q-58 -58 -146 -95t-196 -37zM548 946q-78 0 -141.5 -86t-90.5 -216h351l7 41 q19 119 -11.5 190t-114.5 71zM900 1296h-202l30 185h202zM490 1296h-202l30 185h202z" />
<glyph unicode="&#xec;" horiz-adv-x="462" d="M243 0h-201l216 1082h201zM489 1218h-166l-182 266h230z" />
<glyph unicode="&#xed;" horiz-adv-x="462" d="M243 0h-201l216 1082h201zM494 1481h221l2 -6l-269 -260h-159z" />
<glyph unicode="&#xee;" horiz-adv-x="462" d="M243 0h-201l216 1082h201zM678 1278l-5 -22h-161l-85 151l-146 -151h-158l5 23l260 232h118z" />
<glyph unicode="&#xef;" horiz-adv-x="462" d="M243 0h-201l216 1082h201zM706 1274h-202l30 185h202zM296 1274h-202l30 185h202z" />
<glyph unicode="&#xf0;" horiz-adv-x="1002" d="M883 1292q69 -120 87 -285.5t-23 -369.5l-17 -87q-54 -268 -204 -419.5t-336 -151.5q-172 0 -268 140.5t-55 342.5q49 245 183 375.5t318 130.5q62 0 116 -29.5t87 -79.5l5 4q5 103 -10.5 184t-49.5 142l-240 -148l-44 94l223 137q-27 26 -58 47.5t-66 40.5l93 157 q58 -25 108 -60t92 -81l210 129l43 -94zM748 639q4 22 5 29t3 17q-16 57 -66.5 94.5t-132.5 37.5q-94 0 -176.5 -103t-112.5 -252q-28 -140 12.5 -234t143.5 -94q94 0 182 119t124 297z" />
<glyph unicode="&#xf1;" d="M408 933q59 82 132.5 125.5t156.5 43.5q127 0 185 -107t15 -324l-134 -671h-201l134 669q31 161 4.5 218t-110.5 57q-54 0 -106.5 -39.5t-96.5 -107.5l-159 -797h-201l216 1082h184zM978 1516q-16 -96 -72.5 -157t-130.5 -61q-54 0 -114.5 49t-102.5 49q-30 0 -57.5 -34 t-34.5 -82l-105 28q15 94 72.5 157t131.5 63q43 0 109 -49.5t108 -49.5q30 0 58 34.5t36 83.5z" />
<glyph unicode="&#xf2;" d="M105 609q35 224 163 358.5t318 134.5q179 0 268 -140t55 -353l-22 -138q-36 -225 -163.5 -358.5t-315.5 -133.5q-181 0 -270.5 139t-54.5 353zM283 471q-25 -154 10 -246t139 -92q96 0 163 96t91 242l22 138q24 151 -10.5 244t-136.5 93q-99 0 -166 -96t-90 -241z M706 1239h-166l-182 266h230z" />
<glyph unicode="&#xf3;" d="M105 609q35 224 163 358.5t318 134.5q179 0 268 -140t55 -353l-22 -138q-36 -225 -163.5 -358.5t-315.5 -133.5q-181 0 -270.5 139t-54.5 353zM283 471q-25 -154 10 -246t139 -92q96 0 163 96t91 242l22 138q24 151 -10.5 244t-136.5 93q-99 0 -166 -96t-90 -241z M713 1502h221l2 -6l-269 -260h-159z" />
<glyph unicode="&#xf4;" d="M105 609q35 224 163 358.5t318 134.5q179 0 268 -140t55 -353l-22 -138q-36 -225 -163.5 -358.5t-315.5 -133.5q-181 0 -270.5 139t-54.5 353zM283 471q-25 -154 10 -246t139 -92q96 0 163 96t91 242l22 138q24 151 -10.5 244t-136.5 93q-99 0 -166 -96t-90 -241z M895 1299l-5 -22h-161l-85 151l-146 -151h-158l5 23l260 232h118z" />
<glyph unicode="&#xf5;" d="M105 609q35 224 163 358.5t318 134.5q179 0 268 -140t55 -353l-22 -138q-36 -225 -163.5 -358.5t-315.5 -133.5q-181 0 -270.5 139t-54.5 353zM283 471q-25 -154 10 -246t139 -92q96 0 163 96t91 242l22 138q24 151 -10.5 244t-136.5 93q-99 0 -166 -96t-90 -241z M944 1516q-16 -96 -72.5 -157t-130.5 -61q-54 0 -114.5 49t-102.5 49q-30 0 -57.5 -34t-34.5 -82l-105 28q15 94 72.5 157t131.5 63q43 0 109 -49.5t108 -49.5q30 0 58 34.5t36 83.5z" />
<glyph unicode="&#xf6;" d="M105 609q35 224 163 358.5t318 134.5q179 0 268 -140t55 -353l-22 -138q-36 -225 -163.5 -358.5t-315.5 -133.5q-181 0 -270.5 139t-54.5 353zM283 471q-25 -154 10 -246t139 -92q96 0 163 96t91 242l22 138q24 151 -10.5 244t-136.5 93q-99 0 -166 -96t-90 -241z M923 1295h-202l30 185h202zM513 1295h-202l30 185h202z" />
<glyph unicode="&#xf7;" horiz-adv-x="969" d="M921 608h-818l34 171h818zM691 999h-201l39 195h201zM530 193h-201l39 195h201z" />
<glyph unicode="&#xf8;" horiz-adv-x="961" d="M105 609q35 224 163 358.5t318 134.5q49 0 92.5 -12t80.5 -34l93 157h119l-135 -226q53 -68 72 -165.5t1 -212.5l-22 -138q-36 -225 -163.5 -358.5t-315.5 -133.5q-43 0 -81.5 9t-71.5 25l-90 -152h-118l126 212q-63 66 -87 169t-3 229zM283 471q-11 -64 -11 -116.5 t11 -86.5l6 -1l378 636q-20 20 -46.5 31.5t-59.5 11.5q-99 0 -166 -96t-90 -241zM708 609q7 49 9 91.5t-2 71.5l-6 2l-367 -615q17 -13 39.5 -19.5t50.5 -6.5q96 0 163 96t91 242z" />
<glyph unicode="&#xf9;" d="M584 0l15 133q-57 -76 -127.5 -115t-153.5 -39q-131 0 -191 115t-13 349l127 639h200l-128 -641q-36 -178 -13 -241.5t98 -63.5q66 0 121 36.5t98 103.5l161 806h201l-216 -1082h-179zM737 1218h-166l-182 266h230z" />
<glyph unicode="&#xfa;" d="M584 0l15 133q-57 -76 -127.5 -115t-153.5 -39q-131 0 -191 115t-13 349l127 639h200l-128 -641q-36 -178 -13 -241.5t98 -63.5q66 0 121 36.5t98 103.5l161 806h201l-216 -1082h-179zM744 1481h221l2 -6l-269 -260h-159z" />
<glyph unicode="&#xfb;" d="M584 0l15 133q-57 -76 -127.5 -115t-153.5 -39q-131 0 -191 115t-13 349l127 639h200l-128 -641q-36 -178 -13 -241.5t98 -63.5q66 0 121 36.5t98 103.5l161 806h201l-216 -1082h-179zM926 1278l-5 -22h-161l-85 151l-146 -151h-158l5 23l260 232h118z" />
<glyph unicode="&#xfc;" d="M584 0l15 133q-57 -76 -127.5 -115t-153.5 -39q-131 0 -191 115t-13 349l127 639h200l-128 -641q-36 -178 -13 -241.5t98 -63.5q66 0 121 36.5t98 103.5l161 806h201l-216 -1082h-179zM954 1274h-202l30 185h202zM544 1274h-202l30 185h202z" />
<glyph unicode="&#xfd;" horiz-adv-x="863" d="M397 373l1 -60l6 -1l346 770h218l-610 -1250q-57 -111 -135.5 -190t-195.5 -79q-23 0 -50.5 5.5t-53.5 12.5l52 150q11 -2 28.5 -4t27.5 -2q51 0 96.5 52.5t75.5 117.5l55 108l-102 1079h218zM695 1481h221l2 -6l-269 -260h-159z" />
<glyph unicode="&#xfe;" horiz-adv-x="971" d="M898 487q-51 -255 -156 -381.5t-268 -126.5q-71 0 -127 30t-93 86l-102 -511h-201l83 416l16 83l200 999l96 478h200l-112 -557q49 48 106.5 73.5t123.5 25.5q152 0 220.5 -170t18.5 -424zM702 508q39 196 10.5 316t-128.5 120q-54 0 -102 -40t-88 -107l-110 -551 q17 -55 56 -84t102 -29q92 0 157 94.5t98 259.5z" />
<glyph unicode="&#xff;" horiz-adv-x="863" d="M397 373l1 -60l6 -1l346 770h218l-610 -1250q-57 -111 -135.5 -190t-195.5 -79q-23 0 -50.5 5.5t-53.5 12.5l52 150q11 -2 28.5 -4t27.5 -2q51 0 96.5 52.5t75.5 117.5l55 108l-102 1079h218zM905 1274h-202l30 185h202zM495 1274h-202l30 185h202z" />
<glyph unicode="&#x100;" horiz-adv-x="1098" d="M757 368h-434l-174 -368h-203l717 1456h193l131 -1456h-203zM400 529h345l-44 620l-6 1zM1121 1652h-610l21 132h610z" />
<glyph unicode="&#x101;" horiz-adv-x="922" d="M552 0q-2 40 -2 74t4 67q-57 -72 -129.5 -117t-149.5 -45q-122 0 -183.5 88t-32.5 230q33 165 148.5 248.5t301.5 83.5h140l22 111q20 105 -8.5 157.5t-105.5 52.5q-63 0 -116 -50.5t-67 -124.5l-191 1l-2 6q22 133 139.5 226.5t279.5 93.5q144 0 225 -96t47 -268 l-101 -502q-13 -66 -17 -122t1 -114h-203zM352 135q61 0 124.5 42t102.5 104l44 222h-142q-80 0 -142 -61t-78 -144q-16 -78 7 -120.5t84 -42.5zM943 1330h-610l21 132h610z" />
<glyph unicode="&#x102;" horiz-adv-x="1098" d="M757 368h-434l-174 -368h-203l717 1456h193l131 -1456h-203zM400 529h345l-44 620l-6 1zM1114 1872l2 -6q-15 -122 -100 -194t-211 -72q-122 0 -185.5 75t-39.5 192l2 5h150q-11 -69 10.5 -109.5t82.5 -40.5q56 0 91.5 42.5t46.5 107.5h151z" />
<glyph unicode="&#x103;" horiz-adv-x="922" d="M552 0q-2 40 -2 74t4 67q-57 -72 -129.5 -117t-149.5 -45q-122 0 -183.5 88t-32.5 230q33 165 148.5 248.5t301.5 83.5h140l22 111q20 105 -8.5 157.5t-105.5 52.5q-63 0 -116 -50.5t-67 -124.5l-191 1l-2 6q22 133 139.5 226.5t279.5 93.5q144 0 225 -96t47 -268 l-101 -502q-13 -66 -17 -122t1 -114h-203zM352 135q61 0 124.5 42t102.5 104l44 222h-142q-80 0 -142 -61t-78 -144q-16 -78 7 -120.5t84 -42.5zM936 1550l2 -6q-15 -122 -100 -194t-211 -72q-122 0 -185.5 75t-39.5 192l2 5h150q-11 -69 10.5 -109.5t82.5 -40.5 q56 0 91.5 42.5t46.5 107.5h151z" />
<glyph unicode="&#x104;" horiz-adv-x="1098" d="M757 368h-434l-174 -368h-203l717 1456h193l131 -1456h-203zM400 529h345l-44 620l-6 1zM941 0q-60 -55 -94 -99t-44 -98q-8 -34 3 -58t52 -24q21 0 42.5 8t41.5 19l4 -117q-33 -19 -71 -31.5t-87 -12.5q-77 0 -121 52t-27 143q17 81 72 147.5t156 119.5z" />
<glyph unicode="&#x105;" horiz-adv-x="922" d="M552 0q-2 40 -2 74t4 67q-57 -72 -129.5 -117t-149.5 -45q-122 0 -183.5 88t-32.5 230q33 165 148.5 248.5t301.5 83.5h140l22 111q20 105 -8.5 157.5t-105.5 52.5q-63 0 -116 -50.5t-67 -124.5l-191 1l-2 6q22 133 139.5 226.5t279.5 93.5q144 0 225 -96t47 -268 l-101 -502q-13 -66 -17 -122t1 -114h-203zM352 135q61 0 124.5 42t102.5 104l44 222h-142q-80 0 -142 -61t-78 -144q-16 -78 7 -120.5t84 -42.5zM709 0q-60 -55 -94 -99t-44 -98q-8 -34 3 -58t52 -24q21 0 42.5 8t41.5 19l4 -117q-33 -19 -71 -31.5t-87 -12.5q-77 0 -121 52 t-27 143q17 81 72 147.5t156 119.5z" />
<glyph unicode="&#x106;" horiz-adv-x="1041" d="M1004 459l2 -6q-58 -227 -182 -350.5t-323 -123.5q-196 0 -309.5 180t-59.5 444l52 260q58 293 201 453.5t347 160.5q196 0 304 -135.5t80 -363.5h-199q18 164 -31.5 253.5t-173.5 89.5q-108 0 -197.5 -128t-129.5 -328l-52 -262q-44 -215 7.5 -342.5t177.5 -127.5 q109 0 177.5 79t116.5 247h192zM878 1845h221l2 -6l-269 -260h-159z" />
<glyph unicode="&#x107;" horiz-adv-x="889" d="M426 133q68 0 127 58.5t75 156.5h179l2 -6q-23 -159 -140.5 -261t-266.5 -102q-186 0 -270.5 138.5t-51.5 347.5l24 149q35 219 158.5 353.5t318.5 134.5q152 0 235 -111t55 -288h-187q18 112 -17 177.5t-111 65.5q-104 0 -166.5 -95t-84.5 -237l-24 -149 q-24 -152 5.5 -242t139.5 -90zM675 1502h221l2 -6l-269 -260h-159z" />
<glyph unicode="&#x108;" horiz-adv-x="1041" d="M1004 459l2 -6q-58 -227 -182 -350.5t-323 -123.5q-196 0 -309.5 180t-59.5 444l52 260q58 293 201 453.5t347 160.5q196 0 304 -135.5t80 -363.5h-199q18 164 -31.5 253.5t-173.5 89.5q-108 0 -197.5 -128t-129.5 -328l-52 -262q-44 -215 7.5 -342.5t177.5 -127.5 q109 0 177.5 79t116.5 247h192zM1060 1642l-5 -22h-161l-85 151l-146 -151h-158l5 23l260 232h118z" />
<glyph unicode="&#x109;" horiz-adv-x="889" d="M426 133q68 0 127 58.5t75 156.5h179l2 -6q-23 -159 -140.5 -261t-266.5 -102q-186 0 -270.5 138.5t-51.5 347.5l24 149q35 219 158.5 353.5t318.5 134.5q152 0 235 -111t55 -288h-187q18 112 -17 177.5t-111 65.5q-104 0 -166.5 -95t-84.5 -237l-24 -149 q-24 -152 5.5 -242t139.5 -90zM857 1299l-5 -22h-161l-85 151l-146 -151h-158l5 23l260 232h118z" />
<glyph unicode="&#x10a;" horiz-adv-x="1041" d="M1004 459l2 -6q-58 -227 -182 -350.5t-323 -123.5q-196 0 -309.5 180t-59.5 444l52 260q58 293 201 453.5t347 160.5q196 0 304 -135.5t80 -363.5h-199q18 164 -31.5 253.5t-173.5 89.5q-108 0 -197.5 -128t-129.5 -328l-52 -262q-44 -215 7.5 -342.5t177.5 -127.5 q109 0 177.5 79t116.5 247h192zM887 1637h-213l40 200h213z" />
<glyph unicode="&#x10b;" horiz-adv-x="889" d="M426 133q68 0 127 58.5t75 156.5h179l2 -6q-23 -159 -140.5 -261t-266.5 -102q-186 0 -270.5 138.5t-51.5 347.5l24 149q35 219 158.5 353.5t318.5 134.5q152 0 235 -111t55 -288h-187q18 112 -17 177.5t-111 65.5q-104 0 -166.5 -95t-84.5 -237l-24 -149 q-24 -152 5.5 -242t139.5 -90zM684 1294h-213l40 200h213z" />
<glyph unicode="&#x10c;" horiz-adv-x="1041" d="M1004 459l2 -6q-58 -227 -182 -350.5t-323 -123.5q-196 0 -309.5 180t-59.5 444l52 260q58 293 201 453.5t347 160.5q196 0 304 -135.5t80 -363.5h-199q18 164 -31.5 253.5t-173.5 89.5q-108 0 -197.5 -128t-129.5 -328l-52 -262q-44 -215 7.5 -342.5t177.5 -127.5 q109 0 177.5 79t116.5 247h192zM801 1730l134 150h179l-4 -17l-266 -240h-131l-168 239l4 18h176z" />
<glyph unicode="&#x10d;" horiz-adv-x="889" d="M426 133q68 0 127 58.5t75 156.5h179l2 -6q-23 -159 -140.5 -261t-266.5 -102q-186 0 -270.5 138.5t-51.5 347.5l24 149q35 219 158.5 353.5t318.5 134.5q152 0 235 -111t55 -288h-187q18 112 -17 177.5t-111 65.5q-104 0 -166.5 -95t-84.5 -237l-24 -149 q-24 -152 5.5 -242t139.5 -90zM598 1387l134 150h179l-4 -17l-266 -240h-131l-168 239l4 18h176z" />
<glyph unicode="&#x10e;" horiz-adv-x="1110" d="M53 0l291 1456h351q211 0 336 -183t72 -450l-42 -207q-59 -297 -214 -456.5t-378 -159.5h-416zM514 1300l-229 -1146h209q130 0 227.5 126.5t139.5 335.5l42 210q42 214 -27 344t-218 130h-144zM757 1709l134 150h179l-4 -17l-266 -240h-131l-168 239l4 18h176z" />
<glyph unicode="&#x10f;" horiz-adv-x="1110" d="M103 548q55 277 163 415.5t273 138.5q67 0 122 -32.5t91 -92.5l117 583h200l-312 -1560h-175l8 96q-52 -58 -114 -87.5t-132 -29.5q-150 0 -221.5 157t-24.5 391zM299 527q-37 -181 -8 -286t129 -105q55 0 104 39t89 107l106 530q-17 61 -55.5 96.5t-98.5 35.5 q-92 0 -158.5 -107.5t-102.5 -288.5zM1292 1420l-147 -224h-89l95 231l27 132h142z" />
<glyph unicode="&#x110;" horiz-adv-x="1140" d="M725 1456q211 0 336 -183t72 -450l-42 -207q-59 -297 -214 -456.5t-378 -159.5h-416l134 670h-120l28 141h120l129 645h351zM628 670h-210l-103 -516h209q130 0 227.5 126.5t139.5 335.5l42 210q42 214 -27 344t-218 130h-144l-98 -489h210z" />
<glyph unicode="&#x111;" horiz-adv-x="990" d="M1139 1238h-134l-248 -1238h-175l8 96q-52 -58 -114 -87.5t-132 -29.5q-150 0 -221.5 157t-24.5 391l5 21q55 277 163 415.5t273 138.5q67 0 122 -32.5t91 -92.5l52 261h-196l28 141h196l37 181h200l-36 -181h134zM299 527q-37 -181 -8 -286t129 -105q55 0 104 39t89 107 l106 530q-17 61 -55.5 96.5t-98.5 35.5q-92 0 -158.5 -107.5t-102.5 -288.5z" />
<glyph unicode="&#x112;" horiz-adv-x="981" d="M900 676h-511l-104 -522h593l-31 -154h-794l291 1456h788l-31 -156h-587l-94 -469h511zM1060 1652h-610l21 132h610z" />
<glyph unicode="&#x113;" horiz-adv-x="899" d="M417 -21q-178 0 -271 135t-59 342l25 158q35 220 163.5 354t297.5 134q170 0 247.5 -127t44.5 -336l-22 -140h-550l-7 -43q-24 -146 18 -234.5t150 -88.5q77 0 140 27t122 77l43 -126q-58 -58 -146 -95t-196 -37zM548 946q-78 0 -141.5 -86t-90.5 -216h351l7 41 q19 119 -11.5 190t-114.5 71zM908 1331h-610l21 132h610z" />
<glyph unicode="&#x114;" horiz-adv-x="981" d="M900 676h-511l-104 -522h593l-31 -154h-794l291 1456h788l-31 -156h-587l-94 -469h511zM1053 1872l2 -6q-15 -122 -100 -194t-211 -72q-122 0 -185.5 75t-39.5 192l2 5h150q-11 -69 10.5 -109.5t82.5 -40.5q56 0 91.5 42.5t46.5 107.5h151z" />
<glyph unicode="&#x115;" horiz-adv-x="899" d="M417 -21q-178 0 -271 135t-59 342l25 158q35 220 163.5 354t297.5 134q170 0 247.5 -127t44.5 -336l-22 -140h-550l-7 -43q-24 -146 18 -234.5t150 -88.5q77 0 140 27t122 77l43 -126q-58 -58 -146 -95t-196 -37zM548 946q-78 0 -141.5 -86t-90.5 -216h351l7 41 q19 119 -11.5 190t-114.5 71zM901 1551l2 -6q-15 -122 -100 -194t-211 -72q-122 0 -185.5 75t-39.5 192l2 5h150q-11 -69 10.5 -109.5t82.5 -40.5q56 0 91.5 42.5t46.5 107.5h151z" />
<glyph unicode="&#x116;" horiz-adv-x="981" d="M900 676h-511l-104 -522h593l-31 -154h-794l291 1456h788l-31 -156h-587l-94 -469h511zM851 1616h-213l40 200h213z" />
<glyph unicode="&#x117;" horiz-adv-x="899" d="M417 -21q-178 0 -271 135t-59 342l25 158q35 220 163.5 354t297.5 134q170 0 247.5 -127t44.5 -336l-22 -140h-550l-7 -43q-24 -146 18 -234.5t150 -88.5q77 0 140 27t122 77l43 -126q-58 -58 -146 -95t-196 -37zM548 946q-78 0 -141.5 -86t-90.5 -216h351l7 41 q19 119 -11.5 190t-114.5 71zM699 1295h-213l40 200h213z" />
<glyph unicode="&#x118;" horiz-adv-x="981" d="M900 676h-511l-104 -522h593l-31 -154h-794l291 1456h788l-31 -156h-587l-94 -469h511zM651 0q-60 -55 -94 -99t-44 -98q-8 -34 3 -58t52 -24q21 0 42.5 8t41.5 19l4 -117q-33 -19 -71 -31.5t-87 -12.5q-77 0 -121 52t-27 143q17 81 72 147.5t156 119.5z" />
<glyph unicode="&#x119;" horiz-adv-x="899" d="M417 -21q-178 0 -271 135t-59 342l25 158q35 220 163.5 354t297.5 134q170 0 247.5 -127t44.5 -336l-22 -140h-550l-7 -43q-24 -146 18 -234.5t150 -88.5q77 0 140 27t122 77l43 -126q-58 -58 -146 -95t-196 -37zM548 946q-78 0 -141.5 -86t-90.5 -216h351l7 41 q19 119 -11.5 190t-114.5 71zM660 55q-60 -55 -94 -99t-44 -98q-8 -34 3 -58t52 -24q21 0 42.5 8t41.5 19l4 -117q-33 -19 -71 -31.5t-87 -12.5q-77 0 -121 52t-27 143q17 81 72 147.5t156 119.5z" />
<glyph unicode="&#x11a;" horiz-adv-x="981" d="M900 676h-511l-104 -522h593l-31 -154h-794l291 1456h788l-31 -156h-587l-94 -469h511zM765 1709l134 150h179l-4 -17l-266 -240h-131l-168 239l4 18h176z" />
<glyph unicode="&#x11b;" horiz-adv-x="899" d="M417 -21q-178 0 -271 135t-59 342l25 158q35 220 163.5 354t297.5 134q170 0 247.5 -127t44.5 -336l-22 -140h-550l-7 -43q-24 -146 18 -234.5t150 -88.5q77 0 140 27t122 77l43 -126q-58 -58 -146 -95t-196 -37zM548 946q-78 0 -141.5 -86t-90.5 -216h351l7 41 q19 119 -11.5 190t-114.5 71zM613 1388l134 150h179l-4 -17l-266 -240h-131l-168 239l4 18h176z" />
<glyph unicode="&#x11c;" horiz-adv-x="1152" d="M973 207q-65 -87 -186.5 -157.5t-288.5 -70.5q-205 0 -318 141.5t-62 393.5l86 432q53 270 204 400.5t367 130.5q199 0 296 -115t65 -314l-2 -5h-191q22 136 -25.5 207t-170.5 71q-117 0 -212 -97t-130 -276l-87 -434q-40 -199 17 -290t194 -91q90 0 154 36.5t100 89.5 l66 331h-231l29 147h432zM1075 1642l-5 -22h-161l-85 151l-146 -151h-158l5 23l260 232h118z" />
<glyph unicode="&#x11d;" horiz-adv-x="959" d="M103 548q54 276 163.5 415t275.5 139q74 0 132 -37t92 -105l38 122h173l-212 -1063q-46 -224 -173.5 -340t-320.5 -116q-61 0 -133.5 21.5t-122.5 56.5l73 152q42 -31 96.5 -48.5t116.5 -17.5q97 0 166 78.5t97 214.5l11 55q-49 -48 -106 -72t-121 -24q-151 0 -224 157.5 t-26 390.5zM299 527q-36 -180 -6.5 -285.5t130.5 -105.5q57 0 105.5 37.5t87.5 105.5l107 536q-17 60 -55.5 94.5t-99.5 34.5q-92 0 -160 -108t-104 -288zM915 1299l-5 -22h-161l-85 151l-146 -151h-158l5 23l260 232h118z" />
<glyph unicode="&#x11e;" horiz-adv-x="1152" d="M973 207q-65 -87 -186.5 -157.5t-288.5 -70.5q-205 0 -318 141.5t-62 393.5l86 432q53 270 204 400.5t367 130.5q199 0 296 -115t65 -314l-2 -5h-191q22 136 -25.5 207t-170.5 71q-117 0 -212 -97t-130 -276l-87 -434q-40 -199 17 -290t194 -91q90 0 154 36.5t100 89.5 l66 331h-231l29 147h432zM1104 1893l2 -6q-15 -122 -100 -194t-211 -72q-122 0 -185.5 75t-39.5 192l2 5h150q-11 -69 10.5 -109.5t82.5 -40.5q56 0 91.5 42.5t46.5 107.5h151z" />
<glyph unicode="&#x11f;" horiz-adv-x="959" d="M103 548q54 276 163.5 415t275.5 139q74 0 132 -37t92 -105l38 122h173l-212 -1063q-46 -224 -173.5 -340t-320.5 -116q-61 0 -133.5 21.5t-122.5 56.5l73 152q42 -31 96.5 -48.5t116.5 -17.5q97 0 166 78.5t97 214.5l11 55q-49 -48 -106 -72t-121 -24q-151 0 -224 157.5 t-26 390.5zM299 527q-36 -180 -6.5 -285.5t130.5 -105.5q57 0 105.5 37.5t87.5 105.5l107 536q-17 60 -55.5 94.5t-99.5 34.5q-92 0 -160 -108t-104 -288zM944 1550l2 -6q-15 -122 -100 -194t-211 -72q-122 0 -185.5 75t-39.5 192l2 5h150q-11 -69 10.5 -109.5t82.5 -40.5 q56 0 91.5 42.5t46.5 107.5h151z" />
<glyph unicode="&#x120;" horiz-adv-x="1152" d="M973 207q-65 -87 -186.5 -157.5t-288.5 -70.5q-205 0 -318 141.5t-62 393.5l86 432q53 270 204 400.5t367 130.5q199 0 296 -115t65 -314l-2 -5h-191q22 136 -25.5 207t-170.5 71q-117 0 -212 -97t-130 -276l-87 -434q-40 -199 17 -290t194 -91q90 0 154 36.5t100 89.5 l66 331h-231l29 147h432zM902 1637h-213l40 200h213z" />
<glyph unicode="&#x121;" horiz-adv-x="959" d="M103 548q54 276 163.5 415t275.5 139q74 0 132 -37t92 -105l38 122h173l-212 -1063q-46 -224 -173.5 -340t-320.5 -116q-61 0 -133.5 21.5t-122.5 56.5l73 152q42 -31 96.5 -48.5t116.5 -17.5q97 0 166 78.5t97 214.5l11 55q-49 -48 -106 -72t-121 -24q-151 0 -224 157.5 t-26 390.5zM299 527q-36 -180 -6.5 -285.5t130.5 -105.5q57 0 105.5 37.5t87.5 105.5l107 536q-17 60 -55.5 94.5t-99.5 34.5q-92 0 -160 -108t-104 -288zM742 1294h-213l40 200h213z" />
<glyph unicode="&#x122;" horiz-adv-x="1152" d="M973 207q-65 -87 -186.5 -157.5t-288.5 -70.5q-205 0 -318 141.5t-62 393.5l86 432q53 270 204 400.5t367 130.5q199 0 296 -115t65 -314l-2 -5h-191q22 136 -25.5 207t-170.5 71q-117 0 -212 -97t-130 -276l-87 -434q-40 -199 17 -290t194 -91q90 0 154 36.5t100 89.5 l66 331h-231l29 147h432zM488 -248l-147 -224h-89l95 231l27 132h142z" />
<glyph unicode="&#x123;" horiz-adv-x="959" d="M103 548q54 276 163.5 415t275.5 139q74 0 132 -37t92 -105l38 122h173l-212 -1063q-46 -224 -173.5 -340t-320.5 -116q-61 0 -133.5 21.5t-122.5 56.5l73 152q42 -31 96.5 -48.5t116.5 -17.5q97 0 166 78.5t97 214.5l11 55q-49 -48 -106 -72t-121 -24q-151 0 -224 157.5 t-26 390.5zM299 527q-36 -180 -6.5 -285.5t130.5 -105.5q57 0 105.5 37.5t87.5 105.5l107 536q-17 60 -55.5 94.5t-99.5 34.5q-92 0 -160 -108t-104 -288zM568 1411l142 238h105l-71 -244l-30 -146h-177z" />
<glyph unicode="&#x124;" horiz-adv-x="1198" d="M974 0h-199l128 642h-521l-128 -642h-201l291 1456h201l-132 -659h521l132 659h199zM1110 1621l-5 -22h-161l-85 151l-146 -151h-158l5 23l260 232h118z" />
<glyph unicode="&#x125;" d="M418 958l5 -4q52 71 121 109.5t146 38.5q130 0 190 -109.5t16 -330.5l-132 -662h-201l133 664q32 160 4.5 220t-109.5 60q-54 0 -107 -37t-96 -100l-161 -807h-201l312 1560h201zM942 1620l-5 -22h-161l-85 151l-146 -151h-158l5 23l260 232h118z" />
<glyph unicode="&#x126;" horiz-adv-x="1188" d="M1204 1159h110l-27 -133h-109l-205 -1026h-199l128 642h-521l-128 -642h-201l205 1026h-105l27 133h104l60 297h201l-60 -297h521l60 297h199zM412 797h521l46 229h-521z" />
<glyph unicode="&#x127;" horiz-adv-x="990" d="M709 1237h-205l-56 -279l5 -4q52 71 121 109.5t146 38.5q130 0 190 -109.5t16 -330.5l-132 -662h-201l133 664q32 160 4.5 220t-109.5 60q-54 0 -107 -37t-96 -100l-161 -807h-201l247 1237h-125l28 141h125l37 182h201l-37 -182h205z" />
<glyph unicode="&#x128;" horiz-adv-x="502" d="M265 0h-200l291 1456h200zM817 1838q-16 -96 -72.5 -157t-130.5 -61q-54 0 -114.5 49t-102.5 49q-30 0 -57.5 -34t-34.5 -82l-105 28q15 94 72.5 157t131.5 63q43 0 109 -49.5t108 -49.5q30 0 58 34.5t36 83.5z" />
<glyph unicode="&#x129;" horiz-adv-x="462" d="M243 0h-201l216 1082h201zM727 1495q-16 -96 -72.5 -157t-130.5 -61q-54 0 -114.5 49t-102.5 49q-30 0 -57.5 -34t-34.5 -82l-105 28q15 94 72.5 157t131.5 63q43 0 109 -49.5t108 -49.5q30 0 58 34.5t36 83.5z" />
<glyph unicode="&#x12a;" horiz-adv-x="502" d="M265 0h-200l291 1456h200zM804 1652h-610l21 132h610z" />
<glyph unicode="&#x12b;" horiz-adv-x="462" d="M243 0h-201l216 1082h201zM714 1311h-610l21 132h610z" />
<glyph unicode="&#x12c;" horiz-adv-x="502" d="M265 0h-200l291 1456h200zM797 1872l2 -6q-15 -122 -100 -194t-211 -72q-122 0 -185.5 75t-39.5 192l2 5h150q-11 -69 10.5 -109.5t82.5 -40.5q56 0 91.5 42.5t46.5 107.5h151z" />
<glyph unicode="&#x12d;" horiz-adv-x="462" d="M243 0h-201l216 1082h201zM707 1529l2 -6q-15 -122 -100 -194t-211 -72q-122 0 -185.5 75t-39.5 192l2 5h150q-11 -69 10.5 -109.5t82.5 -40.5q56 0 91.5 42.5t46.5 107.5h151z" />
<glyph unicode="&#x12e;" horiz-adv-x="502" d="M265 0h-200l291 1456h200zM221 0q-60 -55 -94 -99t-44 -98q-8 -34 3 -58t52 -24q21 0 42.5 8t41.5 19l4 -117q-33 -19 -71 -31.5t-87 -12.5q-77 0 -121 52t-27 143q17 81 72 147.5t156 119.5z" />
<glyph unicode="&#x12f;" horiz-adv-x="455" d="M242 0h-200l216 1082h200zM515 1366h-200l39 194h200zM197 0q-60 -55 -94 -99t-44 -98q-8 -34 3 -58t52 -24q21 0 42.5 8t41.5 19l4 -117q-33 -19 -71 -31.5t-87 -12.5q-77 0 -121 52t-27 143q17 81 72 147.5t156 119.5z" />
<glyph unicode="&#x130;" horiz-adv-x="502" d="M265 0h-200l291 1456h200zM593 1616h-213l40 200h213z" />
<glyph unicode="&#x131;" horiz-adv-x="462" d="M243 0h-201l216 1082h201z" />
<glyph unicode="&#x132;" horiz-adv-x="1456" d="M265 0h-200l291 1456h200zM1329 1456h200l-208 -1039q-43 -215 -168.5 -326.5t-294.5 -111.5q-167 0 -255 110.5t-45 318.5h201q-30 -147 6 -211t124 -64q71 0 138.5 78t93.5 206z" />
<glyph unicode="&#x133;" horiz-adv-x="914" d="M242 0h-200l216 1082h200zM515 1366h-200l39 194h200zM921 1082l-231 -1156q-38 -185 -129 -274t-229 -89q-26 0 -49.5 4.5t-49.5 13.5l42 155q15 -6 33.5 -10t34.5 -4q47 0 87 51.5t60 152.5l231 1156h200zM975 1369h-201l38 191h201z" />
<glyph unicode="&#x134;" horiz-adv-x="954" d="M827 1456h200l-208 -1039q-43 -215 -168.5 -326.5t-294.5 -111.5q-167 0 -255 110.5t-45 318.5h201q-30 -147 6 -211t124 -64q71 0 138.5 78t93.5 206zM1224 1607l-5 -22h-161l-85 151l-146 -151h-158l5 23l260 232h118z" />
<glyph unicode="&#x135;" horiz-adv-x="472" d="M472 1082l-231 -1156q-38 -185 -129 -274t-229 -89q-26 0 -50.5 4.5t-49.5 13.5l42 151q14 -5 35.5 -9t39.5 -4q45 0 83.5 55.5t58.5 151.5l231 1156h199zM680 1264l-5 -22h-161l-85 151l-146 -151h-158l5 23l260 232h118z" />
<glyph unicode="&#x136;" horiz-adv-x="1089" d="M479 654h-107l-130 -654h-201l291 1456h201l-127 -632h116l433 632h260l-560 -724l284 -732h-230zM458 -248l-147 -224h-89l95 231l27 132h142z" />
<glyph unicode="&#x137;" horiz-adv-x="893" d="M409 496h-80l-99 -496h-200l312 1560h200l-182 -909h78l305 431h227l3 -5l-388 -481l220 -596h-233zM388 -248l-147 -224h-89l95 231l27 132h142z" />
<glyph unicode="&#x138;" horiz-adv-x="977" d="M415 457h-83l-91 -457h-201l216 1082h201l-91 -453h70l355 453h243l2 -5l-441 -500l248 -577h-255z" />
<glyph unicode="&#x139;" horiz-adv-x="919" d="M285 154h538l-31 -154h-739l291 1456h201zM562 1824h221l2 -6l-269 -260h-159z" />
<glyph unicode="&#x13a;" horiz-adv-x="455" d="M242 0h-200l312 1560h200zM573 1885h221l2 -6l-269 -260h-159z" />
<glyph unicode="&#x13b;" horiz-adv-x="919" d="M285 154h538l-31 -154h-739l291 1456h201zM440 -248l-147 -224h-89l95 231l27 132h142z" />
<glyph unicode="&#x13c;" horiz-adv-x="455" d="M242 0h-200l312 1560h200zM158 -248l-147 -224h-89l95 231l27 132h142z" />
<glyph unicode="&#x13d;" horiz-adv-x="919" d="M285 154h538l-31 -154h-739l291 1456h201zM865 1317l-147 -224h-89l95 231l27 132h142z" />
<glyph unicode="&#x13e;" horiz-adv-x="605" d="M242 0h-200l312 1560h200zM792 1420l-147 -224h-89l95 231l27 132h142z" />
<glyph unicode="&#x13f;" horiz-adv-x="919" d="M285 154h538l-31 -154h-739l291 1456h201zM757 685h-213l40 200h213z" />
<glyph unicode="&#x140;" horiz-adv-x="675" d="M242 0h-200l312 1560h200zM679 669h-213l40 200h213z" />
<glyph unicode="&#x141;" horiz-adv-x="879" d="M413 854l223 77l-30 -151l-223 -77l-109 -549h538l-31 -154h-739l125 628l-100 -35l30 151l100 35l136 677h201z" />
<glyph unicode="&#x142;" horiz-adv-x="492" d="M436 886l128 51l-30 -151l-128 -52l-147 -734h-200l129 647l-120 -48l30 151l120 48l153 762h200z" />
<glyph unicode="&#x143;" horiz-adv-x="1199" d="M974 0h-200l-301 1069l-6 -1l-213 -1068h-201l291 1456h201l302 -1065l6 1l212 1064h200zM932 1824h221l2 -6l-269 -260h-159z" />
<glyph unicode="&#x144;" d="M408 933q59 82 132.5 125.5t156.5 43.5q127 0 185 -107t15 -324l-134 -671h-201l134 669q31 161 4.5 218t-110.5 57q-54 0 -106.5 -39.5t-96.5 -107.5l-159 -797h-201l216 1082h184zM747 1502h221l2 -6l-269 -260h-159z" />
<glyph unicode="&#x145;" horiz-adv-x="1199" d="M974 0h-200l-301 1069l-6 -1l-213 -1068h-201l291 1456h201l302 -1065l6 1l212 1064h200zM528 -248l-147 -224h-89l95 231l27 132h142z" />
<glyph unicode="&#x146;" d="M408 933q59 82 132.5 125.5t156.5 43.5q127 0 185 -107t15 -324l-134 -671h-201l134 669q31 161 4.5 218t-110.5 57q-54 0 -106.5 -39.5t-96.5 -107.5l-159 -797h-201l216 1082h184zM407 -248l-147 -224h-89l95 231l27 132h142z" />
<glyph unicode="&#x147;" horiz-adv-x="1199" d="M974 0h-200l-301 1069l-6 -1l-213 -1068h-201l291 1456h201l302 -1065l6 1l212 1064h200zM855 1709l134 150h179l-4 -17l-266 -240h-131l-168 239l4 18h176z" />
<glyph unicode="&#x148;" d="M408 933q59 82 132.5 125.5t156.5 43.5q127 0 185 -107t15 -324l-134 -671h-201l134 669q31 161 4.5 218t-110.5 57q-54 0 -106.5 -39.5t-96.5 -107.5l-159 -797h-201l216 1082h184zM670 1387l134 150h179l-4 -17l-266 -240h-131l-168 239l4 18h176z" />
<glyph unicode="&#x149;" d="M408 933q59 82 132.5 125.5t156.5 43.5q127 0 185 -107t15 -324l-134 -671h-201l134 669q31 161 4.5 218t-110.5 57q-54 0 -106.5 -39.5t-96.5 -107.5l-159 -797h-201l216 1082h184zM377 1419l-147 -224h-89l95 231l27 132h142z" />
<glyph unicode="&#x14a;" horiz-adv-x="1177" d="M1257 1456l-306 -1530q-38 -185 -130 -274t-230 -89q-27 0 -52 4.5t-50 13.5l41 151q15 -5 37.5 -9t40.5 -4q45 0 83.5 55.5t58.5 151.5l15 74l-302 1054h-6l-211 -1054h-201l291 1456h201l302 -1053h6l211 1053h201z" />
<glyph unicode="&#x14b;" d="M409 938q58 79 130.5 121.5t153.5 42.5q127 0 185.5 -108t14.5 -328l-148 -740q-38 -185 -130 -274t-230 -89q-27 0 -52 4.5t-49 13.5l43 157q13 -5 36 -9.5t40 -4.5q44 0 83 53.5t58 148.5l148 739q32 163 6.5 221t-106.5 58q-57 0 -108.5 -35t-93.5 -97l-162 -812h-201 l216 1082h184z" />
<glyph unicode="&#x14c;" horiz-adv-x="1115" d="M1091 596q-59 -293 -213 -455t-372 -162q-201 0 -314.5 181.5t-60.5 446.5l51 252q58 293 207 455.5t363 162.5q205 0 323 -183t66 -447zM942 849q42 214 -20.5 341t-201.5 127q-117 0 -207 -125.5t-131 -330.5l-51 -254q-43 -217 15 -343.5t191 -126.5q122 0 217 126 t137 333zM1114 1673h-610l21 132h610z" />
<glyph unicode="&#x14d;" d="M105 609q35 224 163 358.5t318 134.5q179 0 268 -140t55 -353l-22 -138q-36 -225 -163.5 -358.5t-315.5 -133.5q-181 0 -270.5 139t-54.5 353zM283 471q-25 -154 10 -246t139 -92q96 0 163 96t91 242l22 138q24 151 -10.5 244t-136.5 93q-99 0 -166 -96t-90 -241z M931 1330h-610l21 132h610z" />
<glyph unicode="&#x14e;" horiz-adv-x="1115" d="M1091 596q-59 -293 -213 -455t-372 -162q-201 0 -314.5 181.5t-60.5 446.5l51 252q58 293 207 455.5t363 162.5q205 0 323 -183t66 -447zM942 849q42 214 -20.5 341t-201.5 127q-117 0 -207 -125.5t-131 -330.5l-51 -254q-43 -217 15 -343.5t191 -126.5q122 0 217 126 t137 333zM1107 1893l2 -6q-15 -122 -100 -194t-211 -72q-122 0 -185.5 75t-39.5 192l2 5h150q-11 -69 10.5 -109.5t82.5 -40.5q56 0 91.5 42.5t46.5 107.5h151z" />
<glyph unicode="&#x14f;" d="M105 609q35 224 163 358.5t318 134.5q179 0 268 -140t55 -353l-22 -138q-36 -225 -163.5 -358.5t-315.5 -133.5q-181 0 -270.5 139t-54.5 353zM283 471q-25 -154 10 -246t139 -92q96 0 163 96t91 242l22 138q24 151 -10.5 244t-136.5 93q-99 0 -166 -96t-90 -241z M924 1550l2 -6q-15 -122 -100 -194t-211 -72q-122 0 -185.5 75t-39.5 192l2 5h150q-11 -69 10.5 -109.5t82.5 -40.5q56 0 91.5 42.5t46.5 107.5h151z" />
<glyph unicode="&#x150;" horiz-adv-x="1115" d="M1091 596q-59 -293 -213 -455t-372 -162q-201 0 -314.5 181.5t-60.5 446.5l51 252q58 293 207 455.5t363 162.5q205 0 323 -183t66 -447zM942 849q42 214 -20.5 341t-201.5 127q-117 0 -207 -125.5t-131 -330.5l-51 -254q-43 -217 15 -343.5t191 -126.5q122 0 217 126 t137 333zM1071 1888h206l2 -6l-288 -260h-163l-3 6zM782 1888h196l3 -6l-247 -260h-161z" />
<glyph unicode="&#x151;" d="M105 609q35 224 163 358.5t318 134.5q179 0 268 -140t55 -353l-22 -138q-36 -225 -163.5 -358.5t-315.5 -133.5q-181 0 -270.5 139t-54.5 353zM283 471q-25 -154 10 -246t139 -92q96 0 163 96t91 242l22 138q24 151 -10.5 244t-136.5 93q-99 0 -166 -96t-90 -241z M888 1545h206l2 -6l-288 -260h-163l-3 6zM599 1545h196l3 -6l-247 -260h-161z" />
<glyph unicode="&#x152;" horiz-adv-x="1616" d="M1445 0h-731q-76 -10 -130 -15.5t-107 -5.5q-197 0 -301 168.5t-52 428.5l61 304q56 282 215.5 439.5t374.5 157.5q51 0 110.5 -6t119.5 -15h725l-31 -156h-587l-94 -469h511l-31 -155h-511l-104 -522h593zM508 134q42 0 86 3t86 10l232 1161q-40 6 -82.5 10t-85.5 4 q-119 0 -218.5 -117t-140.5 -323l-61 -306q-45 -223 5 -332.5t179 -109.5z" />
<glyph unicode="&#x153;" horiz-adv-x="1517" d="M111 553q51 257 185 403t324 146q91 0 158.5 -45.5t107.5 -126.5q68 83 152.5 127.5t176.5 44.5q165 0 239 -132t32 -345l-25 -126h-550q-32 -170 4 -268t143 -98q75 0 140 27t126 77l37 -126q-59 -58 -149 -95t-198 -37q-92 0 -161 44t-109 125q-69 -83 -156.5 -126 t-189.5 -43q-176 0 -258.5 155t-34.5 392zM305 526q-37 -183 -8.5 -288t132.5 -105q94 0 169.5 112.5t109.5 280.5l6 27q35 181 7 287t-132 106q-94 0 -170 -114t-108 -279zM1184 946q-69 0 -134.5 -85.5t-104.5 -216.5h347l5 28q25 127 -1.5 200.5t-111.5 73.5z" />
<glyph unicode="&#x154;" horiz-adv-x="1118" d="M379 627l-125 -627h-201l291 1455h435q185 0 277.5 -109t53.5 -305q-25 -123 -91.5 -206.5t-172.5 -128.5q93 -39 124 -127.5t7 -213.5l-25 -127q-15 -70 -13.5 -126t27.5 -89l-5 -23h-207q-26 33 -22 99t20 141l25 123q25 129 -12.5 196.5t-128.5 67.5h-257zM410 782 h224q107 0 178.5 68t95.5 187q27 132 -12 197.5t-148 65.5h-234zM851 1824h221l2 -6l-269 -260h-159z" />
<glyph unicode="&#x155;" horiz-adv-x="616" d="M658 911l-91 5q-54 0 -100.5 -39t-82.5 -109l-154 -768h-201l216 1082h183l-15 -144l5 -3q45 79 104 123t127 44q18 0 37.5 -3.5t31.5 -8.5zM614 1502h221l2 -6l-269 -260h-159z" />
<glyph unicode="&#x156;" horiz-adv-x="1118" d="M379 627l-125 -627h-201l291 1455h435q185 0 277.5 -109t53.5 -305q-25 -123 -91.5 -206.5t-172.5 -128.5q93 -39 124 -127.5t7 -213.5l-25 -127q-15 -70 -13.5 -126t27.5 -89l-5 -23h-207q-26 33 -22 99t20 141l25 123q25 129 -12.5 196.5t-128.5 67.5h-257zM410 782 h224q107 0 178.5 68t95.5 187q27 132 -12 197.5t-148 65.5h-234zM447 -248l-147 -224h-89l95 231l27 132h142z" />
<glyph unicode="&#x157;" horiz-adv-x="616" d="M658 911l-91 5q-54 0 -100.5 -39t-82.5 -109l-154 -768h-201l216 1082h183l-15 -144l5 -3q45 79 104 123t127 44q18 0 37.5 -3.5t31.5 -8.5zM157 -248l-147 -224h-89l95 231l27 132h142z" />
<glyph unicode="&#x158;" horiz-adv-x="1118" d="M379 627l-125 -627h-201l291 1455h435q185 0 277.5 -109t53.5 -305q-25 -123 -91.5 -206.5t-172.5 -128.5q93 -39 124 -127.5t7 -213.5l-25 -127q-15 -70 -13.5 -126t27.5 -89l-5 -23h-207q-26 33 -22 99t20 141l25 123q25 129 -12.5 196.5t-128.5 67.5h-257zM410 782 h224q107 0 178.5 68t95.5 187q27 132 -12 197.5t-148 65.5h-234zM774 1709l134 150h179l-4 -17l-266 -240h-131l-168 239l4 18h176z" />
<glyph unicode="&#x159;" horiz-adv-x="616" d="M658 911l-91 5q-54 0 -100.5 -39t-82.5 -109l-154 -768h-201l216 1082h183l-15 -144l5 -3q45 79 104 123t127 44q18 0 37.5 -3.5t31.5 -8.5zM539 1387l134 150h179l-4 -17l-266 -240h-131l-168 239l4 18h176z" />
<glyph unicode="&#x15a;" horiz-adv-x="1049" d="M756 333q23 117 -21 182t-178 132q-190 76 -272 180.5t-44 292.5q34 173 158 265t297 92q189 0 291.5 -120t61.5 -328h-201q26 134 -24 213t-159 79q-77 0 -141.5 -58.5t-80.5 -140.5q-24 -120 18.5 -181t191.5 -132q185 -77 262.5 -182t40.5 -292q-36 -178 -160.5 -267 t-303.5 -89q-187 0 -311 107.5t-74 333.5l2 5h193q-33 -164 36.5 -228t184.5 -64q77 0 146.5 57.5t86.5 142.5zM856 1845h221l2 -6l-269 -260h-159z" />
<glyph unicode="&#x15b;" horiz-adv-x="860" d="M565 271q10 65 -21 107t-131 95q-149 64 -215 138t-47 191q21 129 128.5 214.5t262.5 85.5q153 0 236 -95.5t57 -235.5l-2 -5h-193q12 80 -19 134t-102 54q-67 0 -115.5 -44t-56.5 -100q-11 -64 17 -98.5t133 -93.5q153 -61 219 -138.5t47 -198.5q-23 -139 -132 -220.5 t-270 -81.5q-165 0 -251 103t-59 237l2 5h188q-14 -105 28.5 -151.5t117.5 -46.5q70 0 118.5 41t59.5 104zM671 1502h221l2 -6l-269 -260h-159z" />
<glyph unicode="&#x15c;" horiz-adv-x="1049" d="M756 333q23 117 -21 182t-178 132q-190 76 -272 180.5t-44 292.5q34 173 158 265t297 92q189 0 291.5 -120t61.5 -328h-201q26 134 -24 213t-159 79q-77 0 -141.5 -58.5t-80.5 -140.5q-24 -120 18.5 -181t191.5 -132q185 -77 262.5 -182t40.5 -292q-36 -178 -160.5 -267 t-303.5 -89q-187 0 -311 107.5t-74 333.5l2 5h193q-33 -164 36.5 -228t184.5 -64q77 0 146.5 57.5t86.5 142.5zM1038 1642l-5 -22h-161l-85 151l-146 -151h-158l5 23l260 232h118z" />
<glyph unicode="&#x15d;" horiz-adv-x="860" d="M565 271q10 65 -21 107t-131 95q-149 64 -215 138t-47 191q21 129 128.5 214.5t262.5 85.5q153 0 236 -95.5t57 -235.5l-2 -5h-193q12 80 -19 134t-102 54q-67 0 -115.5 -44t-56.5 -100q-11 -64 17 -98.5t133 -93.5q153 -61 219 -138.5t47 -198.5q-23 -139 -132 -220.5 t-270 -81.5q-165 0 -251 103t-59 237l2 5h188q-14 -105 28.5 -151.5t117.5 -46.5q70 0 118.5 41t59.5 104zM855 1299l-5 -22h-161l-85 151l-146 -151h-158l5 23l260 232h118z" />
<glyph unicode="&#x15e;" horiz-adv-x="1049" d="M756 333q23 117 -21 182t-178 132q-190 76 -272 180.5t-44 292.5q34 173 158 265t297 92q189 0 291.5 -120t61.5 -328h-201q26 134 -24 213t-159 79q-77 0 -141.5 -58.5t-80.5 -140.5q-24 -120 18.5 -181t191.5 -132q185 -77 262.5 -182t40.5 -292q-36 -178 -160.5 -267 t-303.5 -89q-187 0 -311 107.5t-74 333.5l2 5h193q-33 -164 36.5 -228t184.5 -64q77 0 146.5 57.5t86.5 142.5zM516 -6l-21 -58q50 -10 76 -51t10 -121q-21 -104 -99 -158t-203 -52l-5 3l16 106q45 0 81 25.5t46 75.5q10 53 -12 71t-88 25l51 134h148z" />
<glyph unicode="&#x15f;" horiz-adv-x="860" d="M565 271q10 65 -21 107t-131 95q-149 64 -215 138t-47 191q21 129 128.5 214.5t262.5 85.5q153 0 236 -95.5t57 -235.5l-2 -5h-193q12 80 -19 134t-102 54q-67 0 -115.5 -44t-56.5 -100q-11 -64 17 -98.5t133 -93.5q153 -61 219 -138.5t47 -198.5q-23 -139 -132 -220.5 t-270 -81.5q-165 0 -251 103t-59 237l2 5h188q-14 -105 28.5 -151.5t117.5 -46.5q70 0 118.5 41t59.5 104zM446 -4l-21 -58q50 -10 76 -51t10 -121q-21 -104 -99 -158t-203 -52l-5 3l16 106q45 0 81 25.5t46 75.5q10 53 -12 71t-88 25l51 134h148z" />
<glyph unicode="&#x160;" horiz-adv-x="1049" d="M756 333q23 117 -21 182t-178 132q-190 76 -272 180.5t-44 292.5q34 173 158 265t297 92q189 0 291.5 -120t61.5 -328h-201q26 134 -24 213t-159 79q-77 0 -141.5 -58.5t-80.5 -140.5q-24 -120 18.5 -181t191.5 -132q185 -77 262.5 -182t40.5 -292q-36 -178 -160.5 -267 t-303.5 -89q-187 0 -311 107.5t-74 333.5l2 5h193q-33 -164 36.5 -228t184.5 -64q77 0 146.5 57.5t86.5 142.5zM779 1730l134 150h179l-4 -17l-266 -240h-131l-168 239l4 18h176z" />
<glyph unicode="&#x161;" horiz-adv-x="860" d="M565 271q10 65 -21 107t-131 95q-149 64 -215 138t-47 191q21 129 128.5 214.5t262.5 85.5q153 0 236 -95.5t57 -235.5l-2 -5h-193q12 80 -19 134t-102 54q-67 0 -115.5 -44t-56.5 -100q-11 -64 17 -98.5t133 -93.5q153 -61 219 -138.5t47 -198.5q-23 -139 -132 -220.5 t-270 -81.5q-165 0 -251 103t-59 237l2 5h188q-14 -105 28.5 -151.5t117.5 -46.5q70 0 118.5 41t59.5 104zM594 1387l134 150h179l-4 -17l-266 -240h-131l-168 239l4 18h176z" />
<glyph unicode="&#x162;" horiz-adv-x="979" d="M1117 1300h-353l-260 -1300h-200l260 1300h-351l31 156h904zM421 -248l-147 -224h-89l95 231l27 132h142z" />
<glyph unicode="&#x163;" horiz-adv-x="612" d="M553 1351l-54 -269h159l-29 -145h-159l-128 -644q-18 -90 -2 -122.5t55 -32.5q21 0 42 3t48 9l-8 -140q-36 -14 -78 -22.5t-86 -8.5q-105 0 -154.5 76.5t-16.5 237.5l128 644h-133l29 145h133l54 269h200zM304 -248l-147 -224h-89l95 231l27 132h142z" />
<glyph unicode="&#x164;" horiz-adv-x="979" d="M1117 1300h-353l-260 -1300h-200l260 1300h-351l31 156h904zM749 1706l134 150h179l-4 -17l-266 -240h-131l-168 239l4 18h176z" />
<glyph unicode="&#x165;" horiz-adv-x="652" d="M553 1351l-54 -269h159l-29 -145h-159l-128 -644q-18 -90 -2 -122.5t55 -32.5q21 0 42 3t48 9l-8 -140q-36 -14 -78 -22.5t-86 -8.5q-105 0 -154.5 76.5t-16.5 237.5l128 644h-133l29 145h133l54 269h200zM867 1438l-147 -224h-89l95 231l27 132h142z" />
<glyph unicode="&#x166;" horiz-adv-x="979" d="M833 805h-168l-161 -805h-200l161 805h-163l28 141h163l71 354h-351l31 156h904l-31 -156h-353l-71 -354h168z" />
<glyph unicode="&#x167;" horiz-adv-x="612" d="M553 1351l-54 -269h159l-29 -145h-159l-42 -209h172l-28 -141h-172l-58 -294q-18 -90 -2 -122.5t55 -32.5q21 0 42 3t48 9l-8 -140q-36 -14 -78 -22.5t-86 -8.5q-105 0 -154.5 76.5t-16.5 237.5l58 294h-159l28 141h159l42 209h-133l29 145h133l54 269h200z" />
<glyph unicode="&#x168;" horiz-adv-x="1115" d="M1209 1456l-202 -1009q-48 -241 -192 -354.5t-349 -113.5q-185 0 -288.5 122.5t-58.5 345.5l202 1009h198l-202 -1009q-33 -166 16.5 -240t163.5 -74q109 0 193.5 77.5t116.5 236.5l202 1009h200zM1123 1838q-16 -96 -72.5 -157t-130.5 -61q-54 0 -114.5 49t-102.5 49 q-30 0 -57.5 -34t-34.5 -82l-105 28q15 94 72.5 157t131.5 63q43 0 109 -49.5t108 -49.5q30 0 58 34.5t36 83.5z" />
<glyph unicode="&#x169;" d="M584 0l15 133q-57 -76 -127.5 -115t-153.5 -39q-131 0 -191 115t-13 349l127 639h200l-128 -641q-36 -178 -13 -241.5t98 -63.5q66 0 121 36.5t98 103.5l161 806h201l-216 -1082h-179zM975 1495q-16 -96 -72.5 -157t-130.5 -61q-54 0 -114.5 49t-102.5 49 q-30 0 -57.5 -34t-34.5 -82l-105 28q15 94 72.5 157t131.5 63q43 0 109 -49.5t108 -49.5q30 0 58 34.5t36 83.5z" />
<glyph unicode="&#x16a;" horiz-adv-x="1115" d="M1209 1456l-202 -1009q-48 -241 -192 -354.5t-349 -113.5q-185 0 -288.5 122.5t-58.5 345.5l202 1009h198l-202 -1009q-33 -166 16.5 -240t163.5 -74q109 0 193.5 77.5t116.5 236.5l202 1009h200zM1110 1652h-610l21 132h610z" />
<glyph unicode="&#x16b;" d="M584 0l15 133q-57 -76 -127.5 -115t-153.5 -39q-131 0 -191 115t-13 349l127 639h200l-128 -641q-36 -178 -13 -241.5t98 -63.5q66 0 121 36.5t98 103.5l161 806h201l-216 -1082h-179zM962 1311h-610l21 132h610z" />
<glyph unicode="&#x16c;" horiz-adv-x="1115" d="M1209 1456l-202 -1009q-48 -241 -192 -354.5t-349 -113.5q-185 0 -288.5 122.5t-58.5 345.5l202 1009h198l-202 -1009q-33 -166 16.5 -240t163.5 -74q109 0 193.5 77.5t116.5 236.5l202 1009h200zM1103 1872l2 -6q-15 -122 -100 -194t-211 -72q-122 0 -185.5 75 t-39.5 192l2 5h150q-11 -69 10.5 -109.5t82.5 -40.5q56 0 91.5 42.5t46.5 107.5h151z" />
<glyph unicode="&#x16d;" d="M584 0l15 133q-57 -76 -127.5 -115t-153.5 -39q-131 0 -191 115t-13 349l127 639h200l-128 -641q-36 -178 -13 -241.5t98 -63.5q66 0 121 36.5t98 103.5l161 806h201l-216 -1082h-179zM955 1529l2 -6q-15 -122 -100 -194t-211 -72q-122 0 -185.5 75t-39.5 192l2 5h150 q-11 -69 10.5 -109.5t82.5 -40.5q56 0 91.5 42.5t46.5 107.5h151z" />
<glyph unicode="&#x16e;" horiz-adv-x="1115" d="M1209 1456l-202 -1009q-48 -241 -192 -354.5t-349 -113.5q-185 0 -288.5 122.5t-58.5 345.5l202 1009h198l-202 -1009q-33 -166 16.5 -240t163.5 -74q109 0 193.5 77.5t116.5 236.5l202 1009h200zM645 1734q16 83 76.5 133.5t135.5 50.5q67 0 109 -54t27 -130 q-17 -85 -76 -133t-133 -48q-69 0 -112 51.5t-27 129.5zM736 1734q-9 -44 10 -70t55 -26q33 0 62 27t38 69q9 46 -8 72.5t-53 26.5q-33 0 -64.5 -28.5t-39.5 -70.5z" />
<glyph unicode="&#x16f;" d="M584 0l15 133q-57 -76 -127.5 -115t-153.5 -39q-131 0 -191 115t-13 349l127 639h200l-128 -641q-36 -178 -13 -241.5t98 -63.5q66 0 121 36.5t98 103.5l161 806h201l-216 -1082h-179zM497 1391q16 83 76.5 133.5t135.5 50.5q67 0 109 -54t27 -130q-17 -85 -76 -133 t-133 -48q-69 0 -112 51.5t-27 129.5zM588 1391q-9 -44 10 -70t55 -26q33 0 62 27t38 69q9 46 -8 72.5t-53 26.5q-33 0 -64.5 -28.5t-39.5 -70.5z" />
<glyph unicode="&#x170;" horiz-adv-x="1115" d="M1209 1456l-202 -1009q-48 -241 -192 -354.5t-349 -113.5q-185 0 -288.5 122.5t-58.5 345.5l202 1009h198l-202 -1009q-33 -166 16.5 -240t163.5 -74q109 0 193.5 77.5t116.5 236.5l202 1009h200zM1067 1867h206l2 -6l-288 -260h-163l-3 6zM778 1867h196l3 -6l-247 -260 h-161z" />
<glyph unicode="&#x171;" d="M584 0l15 133q-57 -76 -127.5 -115t-153.5 -39q-131 0 -191 115t-13 349l127 639h200l-128 -641q-36 -178 -13 -241.5t98 -63.5q66 0 121 36.5t98 103.5l161 806h201l-216 -1082h-179zM919 1524h206l2 -6l-288 -260h-163l-3 6zM630 1524h196l3 -6l-247 -260h-161z" />
<glyph unicode="&#x172;" horiz-adv-x="1115" d="M1209 1456l-202 -1009q-48 -241 -192 -354.5t-349 -113.5q-185 0 -288.5 122.5t-58.5 345.5l202 1009h198l-202 -1009q-33 -166 16.5 -240t163.5 -74q109 0 193.5 77.5t116.5 236.5l202 1009h200zM718 0q-60 -55 -94 -99t-44 -98q-8 -34 3 -58t52 -24q21 0 42.5 8 t41.5 19l4 -117q-33 -19 -71 -31.5t-87 -12.5q-77 0 -121 52t-27 143q17 81 72 147.5t156 119.5z" />
<glyph unicode="&#x173;" d="M584 0l15 133q-57 -76 -127.5 -115t-153.5 -39q-131 0 -191 115t-13 349l127 639h200l-128 -641q-36 -178 -13 -241.5t98 -63.5q66 0 121 36.5t98 103.5l161 806h201l-216 -1082h-179zM715 0q-60 -55 -94 -99t-44 -98q-8 -34 3 -58t52 -24q21 0 42.5 8t41.5 19l4 -117 q-33 -19 -71 -31.5t-87 -12.5q-77 0 -121 52t-27 143q17 81 72 147.5t156 119.5z" />
<glyph unicode="&#x174;" horiz-adv-x="1487" d="M1052 432h6l346 1024h196l-511 -1456h-185l-67 1020l-6 1l-396 -1021h-184l-44 1456h196l20 -1023l6 -1l394 1024h159zM1207 1621l-5 -22h-161l-85 151l-146 -151h-158l5 23l260 232h118z" />
<glyph unicode="&#x175;" horiz-adv-x="1256" d="M867 363l6 -1l276 720h192l-452 -1082h-164l-39 708l-6 2l-321 -710h-166l-19 1082h191l-7 -711l6 -2l321 713h144zM1073 1278l-5 -22h-161l-85 151l-146 -151h-158l5 23l260 232h118z" />
<glyph unicode="&#x176;" horiz-adv-x="1061" d="M594 762l6 -1l417 695h223l-594 -934l-104 -522h-199l108 539l-218 917h224zM1049 1617l-5 -22h-161l-85 151l-146 -151h-158l5 23l260 232h118z" />
<glyph unicode="&#x177;" horiz-adv-x="863" d="M397 373l1 -60l6 -1l346 770h218l-610 -1250q-57 -111 -135.5 -190t-195.5 -79q-23 0 -50.5 5.5t-53.5 12.5l52 150q11 -2 28.5 -4t27.5 -2q51 0 96.5 52.5t75.5 117.5l55 108l-102 1079h218zM877 1278l-5 -22h-161l-85 151l-146 -151h-158l5 23l260 232h118z" />
<glyph unicode="&#x178;" horiz-adv-x="1061" d="M594 762l6 -1l417 695h223l-594 -934l-104 -522h-199l108 539l-218 917h224zM1077 1613h-202l30 185h202zM667 1613h-202l30 185h202z" />
<glyph unicode="&#x179;" horiz-adv-x="971" d="M250 154h583l-31 -154h-784l2 125l745 1176h-515l31 155h743l-24 -121zM817 1824h221l2 -6l-269 -260h-159z" />
<glyph unicode="&#x17a;" horiz-adv-x="836" d="M239 154h472l-31 -154h-687l26 128l607 797h-440l31 157h660l-25 -126zM687 1481h221l2 -6l-269 -260h-159z" />
<glyph unicode="&#x17b;" horiz-adv-x="971" d="M250 154h583l-31 -154h-784l2 125l745 1176h-515l31 155h743l-24 -121zM826 1616h-213l40 200h213z" />
<glyph unicode="&#x17c;" horiz-adv-x="836" d="M239 154h472l-31 -154h-687l26 128l607 797h-440l31 157h660l-25 -126zM696 1273h-213l40 200h213z" />
<glyph unicode="&#x17d;" horiz-adv-x="971" d="M250 154h583l-31 -154h-784l2 125l745 1176h-515l31 155h743l-24 -121zM740 1709l134 150h179l-4 -17l-266 -240h-131l-168 239l4 18h176z" />
<glyph unicode="&#x17e;" horiz-adv-x="836" d="M239 154h472l-31 -154h-687l26 128l607 797h-440l31 157h660l-25 -126zM610 1366l134 150h179l-4 -17l-266 -240h-131l-168 239l4 18h176z" />
<glyph unicode="&#x17f;" horiz-adv-x="448" d="M37 0l244 1221q37 184 132.5 272t241.5 88q26 0 56.5 -6t63.5 -15l-50 -146q-19 5 -35 8t-38 3q-59 0 -105 -54.5t-65 -149.5l-244 -1221h-201z" />
<glyph unicode="&#x192;" horiz-adv-x="608" d="M616 937h-163l-162 -1011q-29 -180 -118.5 -271.5t-226.5 -91.5q-27 0 -51 4.5t-48 13.5l35 151q12 -5 35 -9t40 -4q46 0 82 55t52 152l162 1011h-133l23 145h133l22 139q28 179 121 269.5t238 90.5q28 0 57.5 -6t62.5 -15l-42 -149q-17 5 -36 8t-41 3q-61 0 -103 -52.5 t-57 -148.5l-22 -139h163z" />
<glyph unicode="&#x1a0;" horiz-adv-x="1171" d="M1044 527q-56 -276 -208.5 -412t-371.5 -136q-198 0 -301 147t-52 401l80 400q55 275 205.5 412.5t366.5 137.5q107 0 191 -45.5t132 -130.5q90 22 156 108t94 222h168q-41 -202 -135 -318.5t-236 -151.5q8 -52 5.5 -110.5t-14.5 -123.5zM925 930q40 202 -10.5 294.5 t-183.5 92.5q-119 0 -211.5 -100.5t-129.5 -286.5l-81 -403q-41 -205 7.5 -297.5t178.5 -92.5q122 0 216.5 100.5t132.5 289.5z" />
<glyph unicode="&#x1a1;" horiz-adv-x="981" d="M104 609q35 224 163 358.5t318 134.5q88 0 156 -36.5t111 -102.5q65 25 112 95t68 175h158q-32 -155 -105 -248.5t-186 -126.5q15 -56 17.5 -118.5t-8.5 -130.5l-22 -138q-36 -225 -163.5 -358.5t-315.5 -133.5q-181 0 -270.5 139t-54.5 353zM282 471q-25 -154 10 -246 t139 -92q96 0 163 96t91 242l22 138q24 151 -10.5 244t-136.5 93q-99 0 -166 -96t-90 -241z" />
<glyph unicode="&#x1af;" horiz-adv-x="1192" d="M1209 1456l-39 -192l5 -3q83 16 143 103t89 231h160l2 -5q-42 -226 -148 -343t-281 -135l-133 -665q-48 -241 -192 -354.5t-349 -113.5q-185 0 -288.5 122.5t-58.5 345.5l202 1009h198l-202 -1009q-33 -166 16.5 -240t163.5 -74q109 0 193.5 77.5t116.5 236.5l202 1009 h200z" />
<glyph unicode="&#x1b0;" horiz-adv-x="1053" d="M1243 1196l2 -5q-30 -162 -105.5 -246.5t-208.5 -104.5l-168 -840h-179l15 133q-57 -76 -127.5 -115t-153.5 -39q-131 0 -191 115t-13 349l127 639h200l-128 -641q-36 -178 -13 -241.5t98 -63.5q66 0 121 36.5t98 103.5l161 806h201l-22 -108l6 -2q52 14 88.5 71 t55.5 153h136z" />
<glyph unicode="&#x1f0;" horiz-adv-x="472" d="M472 1082l-231 -1156q-38 -185 -129 -274t-229 -89q-26 0 -50.5 4.5t-49.5 13.5l42 151q14 -5 35.5 -9t39.5 -4q45 0 83.5 55.5t58.5 151.5l231 1156h199zM421 1352l134 150h179l-4 -17l-266 -240h-131l-168 239l4 18h176z" />
<glyph unicode="&#x1fa;" horiz-adv-x="1098" d="M757 368h-434l-174 -368h-203l717 1456h193l131 -1456h-203zM400 529h345l-44 620l-6 1zM986 2100h183l2 -6l-233 -194h-121l-2 5zM669 1682q15 76 68 122t119 46q58 0 94 -49t23 -119q-16 -76 -67.5 -119.5t-115.5 -43.5q-61 0 -98 46.5t-23 116.5zM750 1682 q-9 -39 7.5 -62.5t48.5 -23.5q26 0 51 24.5t33 61.5q8 41 -6 65.5t-43 24.5q-30 0 -57 -26t-34 -64z" />
<glyph unicode="&#x1fb;" horiz-adv-x="922" d="M552 0q-2 40 -2 74t4 67q-57 -72 -129.5 -117t-149.5 -45q-122 0 -183.5 88t-32.5 230q33 165 148.5 248.5t301.5 83.5h140l22 111q20 105 -8.5 157.5t-105.5 52.5q-63 0 -116 -50.5t-67 -124.5l-191 1l-2 6q22 133 139.5 226.5t279.5 93.5q144 0 225 -96t47 -268 l-101 -502q-13 -66 -17 -122t1 -114h-203zM352 135q61 0 124.5 42t102.5 104l44 222h-142q-80 0 -142 -61t-78 -144q-16 -78 7 -120.5t84 -42.5zM808 1778h183l2 -6l-233 -194h-121l-2 5zM491 1360q15 76 68 122t119 46q58 0 94 -49t23 -119q-16 -76 -67.5 -119.5 t-115.5 -43.5q-61 0 -98 46.5t-23 116.5zM572 1360q-9 -39 7.5 -62.5t48.5 -23.5q26 0 51 24.5t33 61.5q8 41 -6 65.5t-43 24.5q-30 0 -57 -26t-34 -64z" />
<glyph unicode="&#x1fc;" horiz-adv-x="1576" d="M1439 0h-722l60 361h-389l-228 -361h-239l959 1456h801l-31 -157h-516l-78 -467h434l-31 -155h-429l-87 -522h527zM805 531l109 652l-5 2l-414 -654h310zM1100 1824h221l2 -6l-269 -260h-159z" />
<glyph unicode="&#x1fd;" horiz-adv-x="1420" d="M933 -21q-100 0 -173.5 46.5t-112.5 131.5q-62 -76 -158.5 -127t-217.5 -51q-137 0 -204 89t-37 236q33 168 146.5 251t303.5 83h163l16 78q23 116 -1.5 173t-94.5 57q-69 0 -125.5 -55.5t-71.5 -133.5l-188 16l-1 6q25 149 138.5 236t279.5 87q80 0 142 -32t97 -93 q63 61 138 93t159 32q160 0 234.5 -131t32.5 -348l-25 -124h-552q-35 -174 1 -270t156 -96q74 0 136 27.5t129 75.5l32 -132q-53 -47 -143.5 -86t-198.5 -39zM340 127q50 0 117.5 40t110.5 91l48 243h-162q-82 0 -145 -59.5t-79 -141.5q-17 -85 9.5 -129t100.5 -44z M1100 946q-79 0 -144 -84.5t-100 -217.5l3 -5h344l6 30q26 131 1 204t-110 73zM977 1503h221l2 -6l-269 -260h-159z" />
<glyph unicode="&#x1fe;" horiz-adv-x="1157" d="M1046 527q-56 -276 -208.5 -412t-371.5 -136q-62 0 -116 15t-98 45l-87 -129h-118l133 196q-58 72 -76.5 178.5t9.5 242.5l80 400q55 275 205.5 412.5t366.5 137.5q81 0 150.5 -27t120.5 -78l95 140h118l-153 -226q34 -71 42.5 -161.5t-12.5 -197.5zM311 527 q-16 -77 -18.5 -136t7.5 -96l6 -2l619 914q-23 56 -71.5 83t-120.5 27q-119 0 -211.5 -100.5t-129.5 -286.5zM927 930q7 35 11 66t4 52l-5 2l-586 -865q25 -25 61.5 -36.5t84.5 -11.5q122 0 216.5 100.5t132.5 289.5zM930 1886h221l2 -6l-269 -260h-159z" />
<glyph unicode="&#x1ff;" horiz-adv-x="961" d="M105 609q35 224 163 358.5t318 134.5q49 0 92.5 -12t80.5 -34l93 157h119l-135 -226q53 -68 72 -165.5t1 -212.5l-22 -138q-36 -225 -163.5 -358.5t-315.5 -133.5q-43 0 -81.5 9t-71.5 25l-90 -152h-118l126 212q-63 66 -87 169t-3 229zM283 471q-11 -64 -11 -116.5 t11 -86.5l6 -1l378 636q-20 20 -46.5 31.5t-59.5 11.5q-99 0 -166 -96t-90 -241zM708 609q7 49 9 91.5t-2 71.5l-6 2l-367 -615q17 -13 39.5 -19.5t50.5 -6.5q96 0 163 96t91 242zM718 1500h221l2 -6l-269 -260h-159z" />
<glyph unicode="&#x218;" horiz-adv-x="1049" d="M756 333q23 117 -21 182t-178 132q-190 76 -272 180.5t-44 292.5q34 173 158 265t297 92q189 0 291.5 -120t61.5 -328h-201q26 134 -24 213t-159 79q-77 0 -141.5 -58.5t-80.5 -140.5q-24 -120 18.5 -181t191.5 -132q185 -77 262.5 -182t40.5 -292q-36 -178 -160.5 -267 t-303.5 -89q-187 0 -311 107.5t-74 333.5l2 5h193q-33 -164 36.5 -228t184.5 -64q77 0 146.5 57.5t86.5 142.5zM450 -248l-147 -224h-89l95 231l27 132h142z" />
<glyph unicode="&#x219;" horiz-adv-x="860" d="M565 271q10 65 -21 107t-131 95q-149 64 -215 138t-47 191q21 129 128.5 214.5t262.5 85.5q153 0 236 -95.5t57 -235.5l-2 -5h-193q12 80 -19 134t-102 54q-67 0 -115.5 -44t-56.5 -100q-11 -64 17 -98.5t133 -93.5q153 -61 219 -138.5t47 -198.5q-23 -139 -132 -220.5 t-270 -81.5q-165 0 -251 103t-59 237l2 5h188q-14 -105 28.5 -151.5t117.5 -46.5q70 0 118.5 41t59.5 104zM380 -248l-147 -224h-89l95 231l27 132h142z" />
<glyph unicode="&#x21a;" horiz-adv-x="979" d="M1117 1300h-353l-260 -1300h-200l260 1300h-351l31 156h904zM487 8l-21 -58q50 -10 76 -51t10 -121q-21 -104 -99 -158t-203 -52l-5 3l16 106q45 0 81 25.5t46 75.5q10 53 -12 71t-88 25l51 134h148z" />
<glyph unicode="&#x21b;" horiz-adv-x="612" d="M553 1351l-54 -269h159l-29 -145h-159l-128 -644q-18 -90 -2 -122.5t55 -32.5q21 0 42 3t48 9l-8 -140q-36 -14 -78 -22.5t-86 -8.5q-105 0 -154.5 76.5t-16.5 237.5l128 644h-133l29 145h133l54 269h200zM370 2l-21 -58q50 -10 76 -51t10 -121q-21 -104 -99 -158 t-203 -52l-5 3l16 106q45 0 81 25.5t46 75.5q10 53 -12 71t-88 25l51 134h148z" />
<glyph unicode="&#x237;" horiz-adv-x="472" d="M472 1082l-231 -1156q-38 -185 -129 -274t-229 -89q-26 0 -50.5 4.5t-49.5 13.5l42 151q14 -5 35.5 -9t39.5 -4q45 0 83.5 55.5t58.5 151.5l231 1156h199z" />
<glyph unicode="&#x259;" horiz-adv-x="899" d="M561 1103q173 0 259.5 -152.5t41.5 -381.5l-10 -47q-51 -253 -187 -397.5t-306 -143.5q-166 0 -239 130t-30 345l25 125h548q31 169 -5 268t-142 99q-74 0 -139.5 -28t-124.5 -76l-39 126q61 57 150.5 95t197.5 38zM390 134q68 0 134 85t106 218h-348l-5 -27 q-26 -129 1 -202.5t112 -73.5z" />
<glyph unicode="&#x2bc;" horiz-adv-x="357" d="M485 1372l-196 -331h-98l113 329l38 190h181z" />
<glyph unicode="&#x2c6;" horiz-adv-x="831" d="M856 1274l-5 -22h-161l-85 151l-146 -151h-158l5 23l260 232h118z" />
<glyph unicode="&#x2c7;" horiz-adv-x="787" d="M577 1359l134 150h179l-4 -17l-266 -240h-131l-168 239l4 18h176z" />
<glyph unicode="&#x2d8;" horiz-adv-x="780" d="M814 1456l2 -6q-15 -122 -100 -194t-211 -72q-122 0 -185.5 75t-39.5 192l2 5h150q-11 -69 10.5 -109.5t82.5 -40.5q56 0 91.5 42.5t46.5 107.5h151z" />
<glyph unicode="&#x2d9;" horiz-adv-x="506" d="M516 1259h-213l40 200h213z" />
<glyph unicode="&#x2da;" horiz-adv-x="606" d="M303 1311q16 83 76.5 133.5t135.5 50.5q67 0 109 -54t27 -130q-17 -85 -76 -133t-133 -48q-69 0 -112 51.5t-27 129.5zM394 1311q-9 -44 10 -70t55 -26q33 0 62 27t38 69q9 46 -8 72.5t-53 26.5q-33 0 -64.5 -28.5t-39.5 -70.5z" />
<glyph unicode="&#x2db;" horiz-adv-x="504" d="M247 0q-60 -55 -94 -99t-44 -98q-8 -34 3 -58t52 -24q21 0 42.5 8t41.5 19l4 -117q-33 -19 -71 -31.5t-87 -12.5q-77 0 -121 52t-27 143q17 81 72 147.5t156 119.5z" />
<glyph unicode="&#x2dc;" horiz-adv-x="818" d="M865 1484q-16 -96 -72.5 -157t-130.5 -61q-54 0 -114.5 49t-102.5 49q-30 0 -57.5 -34t-34.5 -82l-105 28q15 94 72.5 157t131.5 63q43 0 109 -49.5t108 -49.5q30 0 58 34.5t36 83.5z" />
<glyph unicode="&#x2dd;" horiz-adv-x="690" d="M774 1518h206l2 -6l-288 -260h-163l-3 6zM485 1518h196l3 -6l-247 -260h-161z" />
<glyph unicode="&#x2f3;" horiz-adv-x="564" d="M18 -228q13 67 61 107.5t107 40.5q53 0 85.5 -43t20.5 -105q-14 -67 -60 -105.5t-104 -38.5q-55 0 -89 41.5t-21 102.5zM100 -228q-6 -29 6.5 -47t36.5 -18q21 0 40.5 19t25.5 46q6 31 -5 49.5t-34 18.5q-22 0 -43.5 -19.5t-26.5 -48.5z" />
<glyph unicode="&#x300;" horiz-adv-x="26" d="M-202 1207h-127l-83 325h170z" />
<glyph unicode="&#x301;" horiz-adv-x="26" d="M-240 1535h168l-219 -325h-120z" />
<glyph unicode="&#x303;" horiz-adv-x="27" d="M35 1484q-16 -96 -72.5 -157t-130.5 -61q-54 0 -114.5 49t-102.5 49q-30 0 -57.5 -34t-34.5 -82l-105 28q15 94 72.5 157t131.5 63q43 0 109 -49.5t108 -49.5q30 0 58 34.5t36 83.5z" />
<glyph unicode="&#x309;" horiz-adv-x="26" d="M-379 1245l20 137q65 5 93 21t35 58q9 42 -21 62t-83 20l26 103q139 0 200 -46.5t42 -137.5q-13 -69 -55 -106.5t-96 -45.5l-13 -65h-148z" />
<glyph unicode="&#x30f;" horiz-adv-x="26" d="M-229 1252h-171l-186 266h214zM18 1252h-161l-144 266h204z" />
<glyph unicode="&#x323;" horiz-adv-x="26" d="M-509 -333h-223l40 200h223z" />
<glyph unicode="&#x384;" horiz-adv-x="524" d="M487 1633h198l-229 -356h-98z" />
<glyph unicode="&#x385;" horiz-adv-x="903" d="M920 1274h-183l36 182h183zM493 1274h-184l36 182h184zM682 1722h204l-173 -250h-117z" />
<glyph unicode="&#x386;" horiz-adv-x="1098" d="M757 368h-434l-174 -368h-203l717 1456h193l131 -1456h-203zM400 529h345l-44 620l-6 1zM452 1633h198l-229 -356h-98z" />
<glyph unicode="&#x387;" horiz-adv-x="497" d="M377 606h-200l43 214h200z" />
<glyph unicode="&#x388;" horiz-adv-x="1081" d="M1000 676h-511l-104 -522h593l-31 -154h-794l291 1456h788l-31 -156h-587l-94 -469h511zM260 1635h198l-229 -356h-98z" />
<glyph unicode="&#x389;" horiz-adv-x="1298" d="M1074 0h-199l128 642h-521l-128 -642h-201l291 1456h201l-132 -659h521l132 659h199zM296 1633h198l-229 -356h-98z" />
<glyph unicode="&#x38a;" horiz-adv-x="602" d="M365 0h-200l291 1456h200zM301 1633h198l-229 -356h-98z" />
<glyph unicode="&#x38c;" horiz-adv-x="1135" d="M1111 596q-59 -293 -213 -455t-372 -162q-201 0 -314.5 181.5t-60.5 446.5l51 252q58 293 207 455.5t363 162.5q205 0 323 -183t66 -447zM962 849q42 214 -20.5 341t-201.5 127q-117 0 -207 -125.5t-131 -330.5l-51 -254q-43 -217 15 -343.5t191 -126.5q122 0 217 126 t137 333zM330 1633h198l-229 -356h-98z" />
<glyph unicode="&#x38e;" horiz-adv-x="1161" d="M694 762l6 -1l417 695h223l-594 -934l-104 -522h-199l108 539l-218 917h224zM206 1633h198l-229 -356h-98z" />
<glyph unicode="&#x38f;" horiz-adv-x="1151" d="M552 56l20 99l2 9q99 35 178.5 177t130.5 396l23 111q46 237 5.5 354.5t-156.5 117.5q-106 0 -200 -127t-137 -345l-23 -111q-55 -272 -29.5 -404.5t116.5 -168.5l-2 -9l-20 -99l-11 -56h-403l31 155h214q-84 93 -114.5 247t5.5 335l22 109q59 298 216.5 464.5 t365.5 166.5q191 0 289.5 -178t43.5 -453l-22 -109q-38 -192 -127.5 -342.5t-207.5 -239.5h213l-31 -155h-403zM327 1633h198l-229 -356h-98z" />
<glyph unicode="&#x390;" horiz-adv-x="571" d="M477 1081l-159 -795q-18 -90 -5 -120t51 -30q20 0 38.5 5t41.5 15l3 -138q-43 -22 -79.5 -30.5t-80.5 -8.5q-106 0 -153.5 76.5t-14.5 237.5l157 788h201zM711 1205h-183l36 182h183zM284 1205h-184l36 182h184zM473 1653h204l-173 -250h-117z" />
<glyph unicode="&#x391;" horiz-adv-x="1098" d="M757 368h-434l-174 -368h-203l717 1456h193l131 -1456h-203zM400 529h345l-44 620l-6 1z" />
<glyph unicode="&#x392;" horiz-adv-x="1083" d="M53 0l291 1456h391q185 0 281.5 -100t58.5 -292q-23 -111 -87.5 -188.5t-161.5 -111.5q107 -26 147.5 -123t14.5 -229q-43 -214 -169 -313t-322 -99h-444zM390 679l-105 -525h243q94 0 164.5 67.5t95.5 189.5q26 131 -5.5 199.5t-128.5 68.5h-264zM419 825h217 q84 3 149.5 64.5t87.5 170.5q25 128 -17.5 184t-151.5 56h-190z" />
<glyph unicode="&#x393;" horiz-adv-x="945" d="M1058 1300h-544l-260 -1300h-201l291 1456h745z" />
<glyph unicode="&#x394;" horiz-adv-x="1214" d="M722 1456h193l172 -1456h-1138zM236 154h627l-104 996l-6 1z" />
<glyph unicode="&#x395;" horiz-adv-x="981" d="M900 676h-511l-104 -522h593l-31 -154h-794l291 1456h788l-31 -156h-587l-94 -469h511z" />
<glyph unicode="&#x396;" horiz-adv-x="971" d="M250 154h583l-31 -154h-784l2 125l745 1176h-515l31 155h743l-24 -121z" />
<glyph unicode="&#x397;" horiz-adv-x="1198" d="M974 0h-199l128 642h-521l-128 -642h-201l291 1456h201l-132 -659h521l132 659h199z" />
<glyph unicode="&#x398;" horiz-adv-x="1157" d="M805 652h-353l31 154h353zM1090 596q-59 -293 -213 -455t-372 -162q-201 0 -314.5 181.5t-60.5 446.5l51 252q58 293 207 455.5t363 162.5q205 0 323 -183t66 -447zM941 849q42 214 -20.5 341t-201.5 127q-117 0 -207 -125.5t-131 -330.5l-51 -254q-43 -217 15 -343.5 t191 -126.5q122 0 217 126t137 333z" />
<glyph unicode="&#x399;" horiz-adv-x="502" d="M265 0h-200l291 1456h200z" />
<glyph unicode="&#x39a;" horiz-adv-x="1089" d="M479 654h-107l-130 -654h-201l291 1456h201l-127 -632h116l433 632h260l-560 -724l284 -732h-230z" />
<glyph unicode="&#x39b;" horiz-adv-x="1102" d="M703 1180l-6 1l-535 -1181h-207l702 1456h196l120 -1456h-207z" />
<glyph unicode="&#x39c;" horiz-adv-x="1423" d="M597 1456l79 -1186l6 -1l554 1187h259l-291 -1456h-199l112 559l126 541l-6 2l-546 -1102h-132l-105 1099h-6l-89 -540l-112 -559h-199l291 1456h258z" />
<glyph unicode="&#x39d;" horiz-adv-x="1199" d="M974 0h-200l-301 1069l-6 -1l-213 -1068h-201l291 1456h201l302 -1065l6 1l212 1064h200z" />
<glyph unicode="&#x39e;" horiz-adv-x="967" d="M47 154h774l-31 -154h-774zM259 817h611l-30 -152h-611zM317 1456h742l-31 -155h-742z" />
<glyph unicode="&#x39f;" horiz-adv-x="1115" d="M1091 596q-59 -293 -213 -455t-372 -162q-201 0 -314.5 181.5t-60.5 446.5l51 252q58 293 207 455.5t363 162.5q205 0 323 -183t66 -447zM942 849q42 214 -20.5 341t-201.5 127q-117 0 -207 -125.5t-131 -330.5l-51 -254q-43 -217 15 -343.5t191 -126.5q122 0 217 126 t137 333z" />
<glyph unicode="&#x3a0;" horiz-adv-x="1199" d="M975 0h-199l260 1300h-522l-260 -1300h-201l291 1456h922z" />
<glyph unicode="&#x3a1;" horiz-adv-x="1093" d="M369 574l-115 -574h-201l291 1456h460q182 0 274.5 -124t54.5 -317q-42 -212 -174 -326.5t-331 -114.5h-259zM400 730h259q99 0 174 82.5t99 200.5q26 131 -12 209t-147 78h-259z" />
<glyph unicode="&#x3a3;" horiz-adv-x="967" d="M714 729l-461 -570l3 -5h590l-31 -154h-830l25 126l493 615l-252 588l25 127h800l-31 -155h-562l236 -545z" />
<glyph unicode="&#x3a4;" horiz-adv-x="979" d="M1117 1300h-353l-260 -1300h-200l260 1300h-351l31 156h904z" />
<glyph unicode="&#x3a5;" horiz-adv-x="1061" d="M594 762l6 -1l417 695h223l-594 -934l-104 -522h-199l108 539l-218 917h224z" />
<glyph unicode="&#x3a6;" horiz-adv-x="1254" d="M898 1273q184 -4 287.5 -159.5t57.5 -387.5q-51 -253 -206.5 -398.5t-356.5 -148.5l-36 -179h-199l36 179q-186 2 -290 156.5t-57 388.5q50 253 206 399.5t359 149.5l37 183h199zM331 724q-38 -188 9 -285.5t169 -91.5h6l150 755l-6 3q-109 3 -201.5 -103t-126.5 -278z M1045 726q37 186 -9.5 284t-164.5 95l-6 -1l-151 -754l6 -3q106 -4 198 101.5t127 277.5z" />
<glyph unicode="&#x3a7;" horiz-adv-x="1073" d="M606 889l6 -1l332 568h236l-474 -721l256 -735h-240l-156 581h-6l-342 -581h-237l485 735l-243 721h234z" />
<glyph unicode="&#x3a8;" horiz-adv-x="1196" d="M709 512l5 -2q101 18 182.5 122.5t115.5 272.5l110 551h201l-110 -551q-53 -263 -195 -404t-344 -162l-68 -339h-199l68 339q-179 25 -269 174.5t-41 391.5l110 551h200l-110 -551q-37 -182 1 -282t136 -115h6l190 948h199z" />
<glyph unicode="&#x3a9;" horiz-adv-x="1131" d="M532 56l20 99l2 9q99 35 178.5 177t130.5 396l23 111q46 237 5.5 354.5t-156.5 117.5q-106 0 -200 -127t-137 -345l-23 -111q-55 -272 -29.5 -404.5t116.5 -168.5l-2 -9l-20 -99l-11 -56h-403l31 155h214q-84 93 -114.5 247t5.5 335l22 109q59 298 216.5 464.5 t365.5 166.5q191 0 289.5 -178t43.5 -453l-22 -109q-38 -192 -127.5 -342.5t-207.5 -239.5h213l-31 -155h-403z" />
<glyph unicode="&#x3aa;" horiz-adv-x="502" d="M265 0h-200l291 1456h200zM796 1617h-202l30 185h202zM386 1617h-202l30 185h202z" />
<glyph unicode="&#x3ab;" horiz-adv-x="1061" d="M594 762l6 -1l417 695h223l-594 -934l-104 -522h-199l108 539l-218 917h224zM1077 1613h-202l30 185h202zM667 1613h-202l30 185h202z" />
<glyph unicode="&#x3ac;" horiz-adv-x="958" d="M968 1081l-156 -779q-19 -96 -11 -128t38 -32q4 0 10 1.5t13 4.5l-10 -142q-28 -15 -52.5 -21t-54.5 -6q-63 0 -101.5 37.5t-45.5 115.5q-55 -75 -121.5 -114t-144.5 -39q-151 0 -217 147t-19 381l5 21q54 276 172 425t284 149q70 0 119.5 -40t76.5 -114l43 133h172z M298 507q-37 -182 -11.5 -278t126.5 -96q54 0 103.5 39t90.5 109q1 7 1.5 11.5t2.5 9.5l98 490q-13 72 -44.5 113t-87.5 41q-92 0 -165 -118.5t-109 -299.5zM735 1606h198l-229 -356h-98z" />
<glyph unicode="&#x3ad;" horiz-adv-x="931" d="M643 519l-7 -38h-158q-81 0 -137 -43.5t-74 -130.5q-17 -82 20.5 -130t124.5 -48q76 0 139 55t79 132h192l1 -6q-30 -171 -153.5 -250t-280.5 -79q-161 0 -257 87t-67 234q20 100 77 163.5t148 93.5q-65 36 -95.5 97t-15.5 133q31 158 145 234.5t289 76.5q142 0 233 -88 t59 -225l-3 -6h-193q16 79 -22 124t-111 45q-77 0 -131 -49t-67 -118q-17 -80 14.5 -120.5t113.5 -40.5h158l-8 -38h1l-6 -28l-7 -37h-1zM694 1605h198l-229 -356h-98z" />
<glyph unicode="&#x3ae;" d="M409 938q58 79 130.5 121.5t153.5 42.5q128 0 186.5 -105t13.5 -331l-216 -1081h-201l216 1080q32 163 6 222t-106 59q-56 0 -108 -35.5t-94 -97.5l-162 -813h-201l216 1082h184zM699 1606h198l-229 -356h-98z" />
<glyph unicode="&#x3af;" horiz-adv-x="571" d="M477 1081l-159 -795q-18 -90 -5 -120t51 -30q20 0 38.5 5t41.5 15l3 -138q-43 -22 -79.5 -30.5t-80.5 -8.5q-106 0 -153.5 76.5t-14.5 237.5l157 788h201zM473 1584h198l-229 -356h-98z" />
<glyph unicode="&#x3b0;" d="M445 1082l-121 -609q-38 -189 -7 -264t112 -69l6 -1q87 -5 159.5 118.5t106.5 292.5q24 134 27 266t-10 266h198q19 -111 18.5 -240.5t-32.5 -291.5q-55 -272 -173.5 -421.5t-321.5 -149.5q-170 0 -251.5 124t-31.5 372l121 607h200zM951 1205h-183l36 182h183zM524 1205 h-184l36 182h184zM713 1653h204l-173 -250h-117z" />
<glyph unicode="&#x3b1;" horiz-adv-x="958" d="M968 1081l-156 -779q-19 -96 -11 -128t38 -32q4 0 10 1.5t13 4.5l-10 -142q-28 -15 -52.5 -21t-54.5 -6q-63 0 -101.5 37.5t-45.5 115.5q-55 -75 -121.5 -114t-144.5 -39q-151 0 -217 147t-19 381l5 21q54 276 172 425t284 149q70 0 119.5 -40t76.5 -114l43 133h172z M298 507q-37 -182 -11.5 -278t126.5 -96q54 0 103.5 39t90.5 109q1 7 1.5 11.5t2.5 9.5l98 490q-13 72 -44.5 113t-87.5 41q-92 0 -165 -118.5t-109 -299.5z" />
<glyph unicode="&#x3b2;" horiz-adv-x="1011" d="M721 1477q154 0 237 -109t49 -282q-21 -105 -79.5 -185t-142.5 -123q88 -45 127 -142.5t14 -222.5q-45 -219 -163.5 -326.5t-286.5 -107.5q-60 0 -117 21t-99 63l-91 -458h-201l290 1452q38 190 170 305t293 115zM533 845h59q80 0 136 63.5t79 174.5q20 102 -9.5 170 t-107.5 68q-72 0 -140.5 -76t-90.5 -188l-168 -840q25 -41 70.5 -62.5t108.5 -21.5q85 0 157 78t96 200q26 130 -6 207t-119 77h-95l7 36l16 79z" />
<glyph unicode="&#x3b3;" horiz-adv-x="863" d="M755 1082h207l-507 -1046l-90 -452h-199l91 456l-89 1042h208l22 -757l-1 -75l6 -1l30 76z" />
<glyph unicode="&#x3b4;" d="M997 1456l-30 -153h-344q152 -173 238.5 -359.5t46.5 -390.5l-6 -27q-52 -258 -186 -402.5t-324 -144.5q-176 0 -259 152.5t-36 386.5l5 27q44 221 161.5 357.5t274.5 158.5q3 0 5.5 -1t5.5 -3q-40 68 -90.5 136.5t-105.5 128.5l27 134h617zM298 526q-37 -183 -8.5 -288 t133.5 -105q93 0 168.5 112.5t109.5 280.5l6 27q27 139 3 234t-79 147q-12 5 -24 8.5t-23 3.5q-96 0 -172 -114t-108 -279z" />
<glyph unicode="&#x3b5;" horiz-adv-x="931" d="M643 519l-7 -38h-158q-81 0 -137 -43.5t-74 -130.5q-17 -82 20.5 -130t124.5 -48q76 0 139 55t79 132h192l1 -6q-30 -171 -153.5 -250t-280.5 -79q-161 0 -257 87t-67 234q20 100 77 163.5t148 93.5q-65 36 -95.5 97t-15.5 133q31 158 145 234.5t289 76.5q142 0 233 -88 t59 -225l-3 -6h-193q16 79 -22 124t-111 45q-77 0 -131 -49t-67 -118q-17 -80 14.5 -120.5t113.5 -40.5h158l-8 -38h1l-6 -28l-7 -37h-1z" />
<glyph unicode="&#x3b6;" horiz-adv-x="873" d="M1000 1456l-22 -110l-377 -464q-124 -152 -187 -260t-88 -234q-25 -119 4 -177.5t112 -58.5h35q114 0 176 -64.5t39 -179.5q-24 -113 -109.5 -199t-197.5 -124l-46 131q55 26 100.5 71t58.5 109q10 53 -13.5 78.5t-88.5 25.5h-41q-140 0 -202 108.5t-30 264.5 q25 132 107.5 273.5t233.5 318.5l286 331l-2 5h-485l31 155h706z" />
<glyph unicode="&#x3b7;" d="M409 938q58 79 130.5 121.5t153.5 42.5q128 0 186.5 -105t13.5 -331l-216 -1081h-201l216 1080q32 163 6 222t-106 59q-56 0 -108 -35.5t-94 -97.5l-162 -813h-201l216 1082h184z" />
<glyph unicode="&#x3b8;" horiz-adv-x="985" d="M907 563q-61 -301 -191 -442.5t-311 -141.5q-167 0 -247.5 153.5t-24.5 430.5l65 329q60 300 191 442.5t313 142.5q166 0 245.5 -154.5t24.5 -430.5zM381 803h373l24 118q42 211 13.5 304.5t-118.5 88.5l-6 1q-81 4 -152 -98t-110 -296zM724 651h-373l-23 -116 q-43 -210 -14 -305.5t120 -89.5l6 -1q80 -5 151 98t110 298z" />
<glyph unicode="&#x3b9;" horiz-adv-x="571" d="M477 1081l-159 -795q-18 -90 -5 -120t51 -30q20 0 38.5 5t41.5 15l3 -138q-43 -22 -79.5 -30.5t-80.5 -8.5q-106 0 -153.5 76.5t-14.5 237.5l157 788h201z" />
<glyph unicode="&#x3ba;" horiz-adv-x="977" d="M415 457h-83l-91 -457h-201l216 1082h201l-91 -453h70l355 453h243l2 -5l-441 -500l248 -577h-255z" />
<glyph unicode="&#x3bb;" horiz-adv-x="936" d="M172 0h-218l520 1051l-19 136q-5 77 -30 126t-70 49q-9 0 -25.5 -2t-29.5 -3l27 144q32 8 56.5 12.5t49.5 4.5q108 0 160 -83t63 -186l105 -939q0 -71 17.5 -116t51.5 -47q9 -1 16 0t24 4l-40 -151q-20 -6 -41.5 -9.5t-38.5 -2.5q-100 3 -144 79t-56 204l-45 487l-6 1 l-23 -57z" />
<glyph unicode="&#x3bc;" horiz-adv-x="1007" d="M461 1082l-125 -626q-40 -199 -13.5 -260.5t107.5 -61.5q66 0 118.5 38t90.5 109l160 801h200l-216 -1082h-184l10 77q-45 -49 -98 -73.5t-114 -24.5q-46 0 -82.5 16t-60.5 49l-92 -460h-200l299 1498h200z" />
<glyph unicode="&#x3bd;" horiz-adv-x="863" d="M400 325l2 -76h6l27 76l292 757h207l-481 -1082h-177l-136 1082h208z" />
<glyph unicode="&#x3be;" horiz-adv-x="890" d="M988 1456l-31 -158h-240q-85 -9 -145 -70t-76 -150q-21 -100 18 -150t148 -50h119l-9 -44l-15 -73l-8 -40h-115q-130 0 -221 -78.5t-121 -230.5q-27 -131 15 -201.5t143 -70.5h77q116 0 178 -65t39 -183q-24 -116 -107 -199.5t-199 -122.5l-39 124q53 28 98 70.5 t58 106.5q11 58 -9 86t-78 28h-55q-173 0 -266.5 115.5t-53.5 315.5q31 156 116 252.5t220 136.5q-80 39 -117.5 106t-20.5 151q16 81 54 140t97 96h-168l31 158h683z" />
<glyph unicode="&#x3bf;" d="M105 609q35 224 163 358.5t318 134.5q179 0 268 -140t55 -353l-22 -138q-36 -225 -163.5 -358.5t-315.5 -133.5q-181 0 -270.5 139t-54.5 353zM283 471q-25 -154 10 -246t139 -92q96 0 163 96t91 242l22 138q24 151 -10.5 244t-136.5 93q-99 0 -166 -96t-90 -241z" />
<glyph unicode="&#x3c0;" horiz-adv-x="1058" d="M1062 930h-112l-129 -644q-18 -90 -5 -120t51 -30q20 0 38.5 5t41.5 15l3 -138q-43 -22 -79.5 -30.5t-80.5 -8.5q-106 0 -153.5 76.5t-14.5 237.5l127 637h-259l-185 -930h-200l185 930h-112l30 152h884z" />
<glyph unicode="&#x3c1;" d="M895 507q-51 -255 -165 -391.5t-277 -136.5q-70 0 -121 30.5t-83 88.5l-102 -514h-201l200 1001h2l-1 4q51 255 180 384t304 129q172 0 245.5 -159.5t23.5 -414.5zM699 528q39 198 16.5 307t-119.5 104l-6 1q-77 4 -147 -108.5t-98 -254.5l-64 -322q14 -59 49.5 -90.5 t97.5 -31.5q92 0 162.5 104t103.5 270z" />
<glyph unicode="&#x3c2;" horiz-adv-x="892" d="M605 1102q147 0 226.5 -107.5t43.5 -291.5h-188q23 118 -4.5 180.5t-108.5 62.5q-93 0 -166 -114t-104 -273l-8 -38q-34 -166 5 -259.5t161 -115.5q143 -23 201.5 -78.5t35.5 -172.5q-24 -111 -109 -196t-196 -123l-47 131q55 26 100 69.5t58 106.5q9 53 -18 77.5 t-95 37.5q-194 29 -268 164t-29 359l8 38q49 249 181 396t321 147z" />
<glyph unicode="&#x3c3;" horiz-adv-x="967" d="M1038 925h-225q60 -69 82.5 -174t-1.5 -229l-5 -26q-47 -234 -180 -375.5t-318 -141.5q-176 0 -258.5 155t-34.5 392l6 27q49 248 182 388.5t324 140.5h459zM297 526q-37 -183 -8.5 -288t133.5 -105q90 0 164.5 113t107.5 280l6 27q34 170 6 271t-127 101 q-95 0 -170.5 -108t-105.5 -264z" />
<glyph unicode="&#x3c4;" horiz-adv-x="891" d="M928 927h-283l-185 -927h-202l185 927h-278l31 155h763z" />
<glyph unicode="&#x3c5;" d="M445 1082l-121 -609q-38 -189 -7 -264t112 -69l6 -1q87 -5 159.5 118.5t106.5 292.5q24 134 27 266t-10 266h198q19 -111 18.5 -240.5t-32.5 -291.5q-55 -272 -173.5 -421.5t-321.5 -149.5q-170 0 -251.5 124t-31.5 372l121 607h200z" />
<glyph unicode="&#x3c6;" horiz-adv-x="1229" d="M839 1082q188 0 286 -163t53 -391q-47 -230 -183 -374.5t-376 -169.5l-92 -462h-201l93 465q-208 33 -289 194t-35 387q33 167 82.5 284t119.5 230h193q-68 -131 -117.5 -258.5t-76.5 -255.5q-34 -166 -0.5 -277t150.5 -136l6 1l186 926h201zM654 157l6 -3 q122 26 205.5 131.5t111.5 242.5q31 166 -10.5 280.5t-154.5 108.5l-6 -1z" />
<glyph unicode="&#x3c7;" horiz-adv-x="926" d="M300 1095q105 0 156 -81.5t62 -182.5l24 -180l6 -1l256 432h204l-427 -720l64 -469q5 -72 21 -113.5t49 -44.5h19.5t19.5 2l-36 -156q-19 -6 -42.5 -9t-43.5 -3q-93 4 -134.5 78t-50.5 207l-30 220l-6 1l-290 -490h-204l462 779l-54 405q-7 74 -34.5 121t-74.5 47 q-8 0 -23.5 -2t-31.5 -4l27 149q30 6 57.5 10.5t54.5 4.5z" />
<glyph unicode="&#x3c8;" horiz-adv-x="1224" d="M834 1081l-184 -921l5 -3q123 30 209.5 149t117.5 273q23 124 23 248.5t-16 254.5h194q25 -103 27.5 -226.5t-27.5 -276.5q-53 -259 -189.5 -414.5t-378.5 -180.5l-89 -446h-201l89 450q-188 31 -274.5 182t-31.5 422l98 490h202l-98 -492q-42 -209 -4 -312.5t136 -120.5 h6l185 924h201z" />
<glyph unicode="&#x3c9;" horiz-adv-x="1438" d="M541 1082q-81 -131 -139.5 -264t-88.5 -268q-39 -193 -23.5 -304t100.5 -105l5 -1q67 -6 131 77.5t100 261.5l62 311h207l-62 -311q-39 -192 -10.5 -268.5t104.5 -70.5h6q75 -5 139.5 113.5t100.5 296.5q23 135 18 268t-34 264h199q35 -110 42.5 -240t-24.5 -292 q-55 -273 -167.5 -422t-300.5 -149q-90 0 -150 56t-79 164q-59 -114 -140.5 -167t-183.5 -53q-174 0 -232 160.5t-8 410.5q34 174 91 296t139 236h198z" />
<glyph unicode="&#x3ca;" horiz-adv-x="571" d="M477 1081l-159 -795q-18 -90 -5 -120t51 -30q20 0 38.5 5t41.5 15l3 -138q-43 -22 -79.5 -30.5t-80.5 -8.5q-106 0 -153.5 76.5t-14.5 237.5l157 788h201zM731 1273h-202l30 185h202zM321 1273h-202l30 185h202z" />
<glyph unicode="&#x3cb;" d="M445 1082l-121 -609q-38 -189 -7 -264t112 -69l6 -1q87 -5 159.5 118.5t106.5 292.5q24 134 27 266t-10 266h198q19 -111 18.5 -240.5t-32.5 -291.5q-55 -272 -173.5 -421.5t-321.5 -149.5q-170 0 -251.5 124t-31.5 372l121 607h200zM971 1274h-202l30 185h202zM561 1274 h-202l30 185h202z" />
<glyph unicode="&#x3cc;" d="M105 609q35 224 163 358.5t318 134.5q179 0 268 -140t55 -353l-22 -138q-36 -225 -163.5 -358.5t-315.5 -133.5q-181 0 -270.5 139t-54.5 353zM283 471q-25 -154 10 -246t139 -92q96 0 163 96t91 242l22 138q24 151 -10.5 244t-136.5 93q-99 0 -166 -96t-90 -241z M665 1606h198l-229 -356h-98z" />
<glyph unicode="&#x3cd;" d="M445 1082l-121 -609q-38 -189 -7 -264t112 -69l6 -1q87 -5 159.5 118.5t106.5 292.5q24 134 27 266t-10 266h198q19 -111 18.5 -240.5t-32.5 -291.5q-55 -272 -173.5 -421.5t-321.5 -149.5q-170 0 -251.5 124t-31.5 372l121 607h200zM713 1585h198l-229 -356h-98z" />
<glyph unicode="&#x3ce;" horiz-adv-x="1438" d="M541 1082q-81 -131 -139.5 -264t-88.5 -268q-39 -193 -23.5 -304t100.5 -105l5 -1q67 -6 131 77.5t100 261.5l62 311h207l-62 -311q-39 -192 -10.5 -268.5t104.5 -70.5h6q75 -5 139.5 113.5t100.5 296.5q23 135 18 268t-34 264h199q35 -110 42.5 -240t-24.5 -292 q-55 -273 -167.5 -422t-300.5 -149q-90 0 -150 56t-79 164q-59 -114 -140.5 -167t-183.5 -53q-174 0 -232 160.5t-8 410.5q34 174 91 296t139 236h198zM936 1585h198l-229 -356h-98z" />
<glyph unicode="&#x3d1;" horiz-adv-x="1104" d="M508 139q111 0 205.5 113.5t134.5 310.5l2 9q-154 13 -239.5 137.5t-48.5 305.5l15 74q37 188 137.5 288t233.5 100q125 0 185 -105t25 -283l-105 -526q-58 -286 -211.5 -435t-365.5 -149q-192 0 -291.5 166.5t-48.5 417.5l137 689l209 2l-138 -691q-41 -202 2.5 -313 t161.5 -111zM756 1013q-25 -124 6.5 -199t113.5 -80l6 1l73 363q22 113 10.5 162t-54.5 43l-6 1q-37 5 -74.5 -48.5t-57.5 -157.5z" />
<glyph unicode="&#x3d2;" horiz-adv-x="954" d="M783 1227q73 134 139.5 189t153.5 55q22 0 43 -6t38 -18l-49 -149q-5 3 -15 6.5t-20 3.5q-28 0 -55.5 -25.5t-52.5 -83.5l-367 -645l-110 -554h-199l112 563l-106 636q-1 59 -18 84t-47 25q-9 0 -22.5 -3.5t-16.5 -6.5l12 149q20 12 42 18t47 6q81 0 129 -55.5t67 -186.5 l49 -407l1 -64l6 -1l27 65z" />
<glyph unicode="&#x3d6;" horiz-adv-x="1361" d="M1429 934h-116q10 -84 6 -179t-26 -205q-55 -272 -159 -421.5t-273 -149.5q-88 0 -145.5 54.5t-75.5 160.5q-59 -111 -137.5 -163t-176.5 -52q-156 0 -205 161t1 410q23 116 56 210t75 174h-102l29 148h1278zM1092 550q17 96 20 191.5t-6 192.5h-646q-48 -96 -83 -192 t-55 -192q-39 -193 -31.5 -304t74.5 -104l6 -1q62 -7 122.5 77t96.5 261l49 244h208l-49 -244q-39 -192 -13.5 -268.5t97.5 -69.5h6q57 -6 112.5 112.5t91.5 296.5z" />
<glyph unicode="&#x400;" horiz-adv-x="981" d="M900 676h-511l-104 -522h593l-31 -154h-794l291 1456h788l-31 -156h-587l-94 -469h511zM835 1561h-166l-182 266h230z" />
<glyph unicode="&#x401;" horiz-adv-x="981" d="M900 676h-511l-104 -522h593l-31 -154h-794l291 1456h788l-31 -156h-587l-94 -469h511zM1052 1617h-202l30 185h202zM642 1617h-202l30 185h202z" />
<glyph unicode="&#x402;" horiz-adv-x="1262" d="M1130 1300h-399l-92 -456q66 21 122 33.5t100 12.5q188 0 283.5 -119.5t51.5 -339.5q-43 -210 -169 -326t-336 -112l-5 3l28 138q117 0 186 80.5t95 212.5q29 148 -13 225t-153 77q-48 0 -104.5 -11t-116.5 -29l-137 -689h-202l260 1300h-314l31 156h915z" />
<glyph unicode="&#x403;" horiz-adv-x="945" d="M1058 1300h-544l-260 -1300h-201l291 1456h745zM844 1824h221l2 -6l-269 -260h-159z" />
<glyph unicode="&#x404;" horiz-adv-x="1101" d="M1008 460l2 -6q-58 -227 -182 -350.5t-323 -123.5q-196 0 -309.5 180t-59.5 444l52 260q58 293 201 453.5t347 160.5q196 0 304 -135.5t80 -363.5h-199q18 164 -31.5 253.5t-173.5 89.5q-108 0 -197.5 -128t-129.5 -328l-11 -53h410l-31 -155h-410l-10 -54 q-44 -215 7.5 -342.5t177.5 -127.5q109 0 177.5 79t116.5 247h192z" />
<glyph unicode="&#x405;" horiz-adv-x="1049" d="M756 333q23 117 -21 182t-178 132q-190 76 -272 180.5t-44 292.5q34 173 158 265t297 92q189 0 291.5 -120t61.5 -328h-201q26 134 -24 213t-159 79q-77 0 -141.5 -58.5t-80.5 -140.5q-24 -120 18.5 -181t191.5 -132q185 -77 262.5 -182t40.5 -292q-36 -178 -160.5 -267 t-303.5 -89q-187 0 -311 107.5t-74 333.5l2 5h193q-33 -164 36.5 -228t184.5 -64q77 0 146.5 57.5t86.5 142.5z" />
<glyph unicode="&#x406;" horiz-adv-x="502" d="M265 0h-200l291 1456h200z" />
<glyph unicode="&#x407;" horiz-adv-x="502" d="M265 0h-200l291 1456h200zM796 1617h-202l30 185h202zM386 1617h-202l30 185h202z" />
<glyph unicode="&#x408;" horiz-adv-x="954" d="M827 1456h200l-208 -1039q-43 -215 -168.5 -326.5t-294.5 -111.5q-167 0 -255 110.5t-45 318.5h201q-30 -147 6 -211t124 -64q71 0 138.5 78t93.5 206z" />
<glyph unicode="&#x409;" horiz-adv-x="1787" d="M1261 1456l-113 -567h242q181 0 274.5 -126t55.5 -318q-43 -210 -176.5 -327.5t-331.5 -117.5h-442l260 1300h-355l-102 -512q-84 -414 -220.5 -601t-349.5 -187h-38l31 154h31q114 0 194.5 142.5t150.5 491.5l133 668h756zM1117 735l-116 -581h242q99 0 176 86.5 t101 206.5q25 126 -14.5 207t-146.5 81h-242z" />
<glyph unicode="&#x40a;" horiz-adv-x="1792" d="M416 814h521l129 642h200l-119 -595h242q182 0 277 -121t58 -307q-42 -204 -175.5 -318.5t-331.5 -114.5h-442l131 659h-521l-131 -659h-201l291 1456h201zM1116 706l-109 -546h242q99 0 175.5 80.5t99.5 194.5q24 121 -17 196t-149 75h-242z" />
<glyph unicode="&#x40b;" horiz-adv-x="1335" d="M1133 1300h-401l-87 -436q55 14 113 22t117 8q193 0 286.5 -111t47.5 -345l-88 -438h-200l88 438q35 177 -5 239t-160 62q-49 0 -110 -8.5t-121 -23.5l-141 -707h-202l260 1300h-302l31 156h905z" />
<glyph unicode="&#x40c;" horiz-adv-x="1089" d="M479 654h-107l-130 -654h-201l291 1456h201l-127 -632h116l433 632h260l-560 -724l284 -732h-230zM819 1824h221l2 -6l-269 -260h-159z" />
<glyph unicode="&#x40d;" horiz-adv-x="1193" d="M1060 1456h201l-291 -1456h-201l209 1045l-5 3l-723 -1048h-201l291 1456h201l-209 -1046l5 -3zM923 1561h-166l-182 266h230z" />
<glyph unicode="&#x40e;" horiz-adv-x="1066" d="M575 737l12 -95l6 -1l409 815h220l-644 -1202q-82 -134 -158 -204.5t-200 -70.5q-19 0 -45.5 3t-35.5 6l31 150q7 -3 31 -4t38 -1q55 0 96.5 44t79.5 122l41 77l-189 1080h218zM1078 1872l2 -6q-15 -122 -100 -194t-211 -72q-122 0 -185.5 75t-39.5 192l2 5h150 q-11 -69 10.5 -109.5t82.5 -40.5q56 0 91.5 42.5t46.5 107.5h151z" />
<glyph unicode="&#x40f;" horiz-adv-x="1193" d="M338 1456h201l-260 -1302h521l260 1302h201l-291 -1456h-353l-71 -356h-201l71 356h-369z" />
<glyph unicode="&#x410;" horiz-adv-x="1098" d="M757 368h-434l-174 -368h-203l717 1456h193l131 -1456h-203zM400 529h345l-44 620l-6 1z" />
<glyph unicode="&#x411;" horiz-adv-x="1064" d="M1050 1300h-544l-88 -438h241q184 0 279 -118.5t58 -308.5q-42 -209 -175.5 -322t-333.5 -113h-442l291 1456h745zM387 707l-110 -553h241q101 0 177 82t100 201q25 124 -15.5 197t-151.5 73h-241z" />
<glyph unicode="&#x412;" horiz-adv-x="1083" d="M53 0l291 1456h391q185 0 281.5 -100t58.5 -292q-23 -111 -87.5 -188.5t-161.5 -111.5q107 -26 147.5 -123t14.5 -229q-43 -214 -169 -313t-322 -99h-444zM390 679l-105 -525h243q94 0 164.5 67.5t95.5 189.5q26 131 -5.5 199.5t-128.5 68.5h-264zM419 825h217 q84 3 149.5 64.5t87.5 170.5q25 128 -17.5 184t-151.5 56h-190z" />
<glyph unicode="&#x413;" horiz-adv-x="945" d="M1058 1300h-544l-260 -1300h-201l291 1456h745z" />
<glyph unicode="&#x414;" horiz-adv-x="1268" d="M1046 -355h-182l71 355h-777l-71 -356h-180l81 510h95q74 69 159 245t155 492l143 565h738l-260 -1302h149zM599 891q-59 -254 -140 -438.5t-173 -298.5h532l229 1146h-345z" />
<glyph unicode="&#x415;" horiz-adv-x="981" d="M900 676h-511l-104 -522h593l-31 -154h-794l291 1456h788l-31 -156h-587l-94 -469h511z" />
<glyph unicode="&#x416;" horiz-adv-x="1604" d="M1082 661h-127l-132 -661h-200l132 661h-131l-428 -661h-250l544 784l-227 672h242l157 -632h125l127 632h200l-127 -632h124l406 632h242l-494 -671l228 -785h-249z" />
<glyph unicode="&#x417;" horiz-adv-x="1025" d="M451 819h138q100 0 168.5 67t91.5 181q24 119 -18.5 186.5t-154.5 67.5q-83 0 -160 -71t-98 -179h-192l-2 6q34 190 170.5 295t312.5 105q184 0 283 -109t60 -303q-23 -111 -91 -195t-168 -128q90 -43 129 -130t15 -210q-42 -212 -183.5 -317.5t-343.5 -105.5 q-163 0 -272 108.5t-64 311.5l3 5h194q-25 -124 22 -197.5t148 -73.5q106 0 188.5 74.5t106.5 192.5q28 145 -15.5 205t-160.5 60h-138l7 36l16 79z" />
<glyph unicode="&#x418;" horiz-adv-x="1193" d="M1060 1456h201l-291 -1456h-201l209 1045l-5 3l-723 -1048h-201l291 1456h201l-209 -1046l5 -3z" />
<glyph unicode="&#x419;" horiz-adv-x="1193" d="M1060 1456h201l-291 -1456h-201l209 1045l-5 3l-723 -1048h-201l291 1456h201l-209 -1046l5 -3zM1141 1872l2 -6q-15 -122 -100 -194t-211 -72q-122 0 -185.5 75t-39.5 192l2 5h150q-11 -69 10.5 -109.5t82.5 -40.5q56 0 91.5 42.5t46.5 107.5h151z" />
<glyph unicode="&#x41a;" horiz-adv-x="1089" d="M479 654h-107l-130 -654h-201l291 1456h201l-127 -632h116l433 632h260l-560 -724l284 -732h-230z" />
<glyph unicode="&#x41b;" horiz-adv-x="1194" d="M1261 1456l-291 -1456h-200l260 1300h-376l-102 -512q-89 -441 -212 -614.5t-326 -173.5h-49l31 154h32q112 2 182 139.5t142 494.5l133 668h776z" />
<glyph unicode="&#x41c;" horiz-adv-x="1423" d="M597 1456l79 -1186l6 -1l554 1187h259l-291 -1456h-199l112 559l126 541l-6 2l-546 -1102h-132l-105 1099h-6l-89 -540l-112 -559h-199l291 1456h258z" />
<glyph unicode="&#x41d;" horiz-adv-x="1198" d="M974 0h-199l128 642h-521l-128 -642h-201l291 1456h201l-132 -659h521l132 659h199z" />
<glyph unicode="&#x41e;" horiz-adv-x="1115" d="M1091 596q-59 -293 -213 -455t-372 -162q-201 0 -314.5 181.5t-60.5 446.5l51 252q58 293 207 455.5t363 162.5q205 0 323 -183t66 -447zM942 849q42 214 -20.5 341t-201.5 127q-117 0 -207 -125.5t-131 -330.5l-51 -254q-43 -217 15 -343.5t191 -126.5q122 0 217 126 t137 333z" />
<glyph unicode="&#x41f;" horiz-adv-x="1199" d="M975 0h-199l260 1300h-522l-260 -1300h-201l291 1456h922z" />
<glyph unicode="&#x420;" horiz-adv-x="1093" d="M369 574l-115 -574h-201l291 1456h460q182 0 274.5 -124t54.5 -317q-42 -212 -174 -326.5t-331 -114.5h-259zM400 730h259q99 0 174 82.5t99 200.5q26 131 -12 209t-147 78h-259z" />
<glyph unicode="&#x421;" horiz-adv-x="1041" d="M1004 459l2 -6q-58 -227 -182 -350.5t-323 -123.5q-196 0 -309.5 180t-59.5 444l52 260q58 293 201 453.5t347 160.5q196 0 304 -135.5t80 -363.5h-199q18 164 -31.5 253.5t-173.5 89.5q-108 0 -197.5 -128t-129.5 -328l-52 -262q-44 -215 7.5 -342.5t177.5 -127.5 q109 0 177.5 79t116.5 247h192z" />
<glyph unicode="&#x422;" horiz-adv-x="979" d="M1117 1300h-353l-260 -1300h-200l260 1300h-351l31 156h904z" />
<glyph unicode="&#x423;" horiz-adv-x="1066" d="M575 737l12 -95l6 -1l409 815h220l-644 -1202q-82 -134 -158 -204.5t-200 -70.5q-19 0 -45.5 3t-35.5 6l31 150q7 -3 31 -4t38 -1q55 0 96.5 44t79.5 122l41 77l-189 1080h218z" />
<glyph unicode="&#x424;" horiz-adv-x="1347" d="M954 1314h12q197 0 308.5 -167.5t61.5 -419.5q-55 -274 -222 -430.5t-383 -156.5h-11l-40 -200h-200l40 200h-13q-198 0 -309.5 166.5t-60.5 418.5q55 274 222 431.5t383 157.5h12l41 202h200zM710 1155q-127 0 -232.5 -119t-143.5 -311q-42 -209 12 -317.5t193 -108.5 h13l171 856h-13zM923 1155l-171 -856h13q126 0 231 118t143 310q42 208 -12 318t-191 110h-13z" />
<glyph unicode="&#x425;" horiz-adv-x="1073" d="M606 889l6 -1l332 568h236l-474 -721l256 -735h-240l-156 581h-6l-342 -581h-237l485 735l-243 721h234z" />
<glyph unicode="&#x426;" horiz-adv-x="1259" d="M339 1456h200l-260 -1302h520l260 1302h201l-260 -1300h141l-117 -507h-183l70 351h-863z" />
<glyph unicode="&#x427;" horiz-adv-x="1168" d="M1235 1456l-291 -1456h-201l122 611q-68 -22 -140 -34t-143 -12q-195 0 -289 110.5t-46 346.5l87 434h200l-87 -434q-36 -179 4 -240.5t162 -61.5q61 0 138 12t145 34l138 690h201z" />
<glyph unicode="&#x428;" horiz-adv-x="1596" d="M544 1456l-260 -1302h362l260 1302h200l-260 -1302h358l260 1302h201l-291 -1456h-1322l291 1456h201z" />
<glyph unicode="&#x429;" horiz-adv-x="1678" d="M544 1456l-260 -1302h362l260 1302h200l-260 -1302h358l260 1302h201l-260 -1302h145l-117 -505h-183l70 351h-1268l291 1456h201z" />
<glyph unicode="&#x42a;" horiz-adv-x="1288" d="M238 1456h524l-119 -594h241q184 0 279 -118.5t58 -308.5q-42 -209 -175.5 -322t-333.5 -113h-441l260 1301h-324zM612 707l-110 -553h241q101 0 177 82t100 201q25 124 -15.5 197t-151.5 73h-241z" />
<glyph unicode="&#x42b;" horiz-adv-x="1464" d="M426 862h241q184 0 279 -118.5t58 -308.5q-42 -209 -175.5 -322t-333.5 -113h-441l291 1456h200zM1238 0h-200l291 1456h200zM395 707l-110 -553h241q101 0 177 82t100 201q25 124 -15.5 197t-151.5 73h-241z" />
<glyph unicode="&#x42c;" horiz-adv-x="1062" d="M418 862h241q184 0 279 -118.5t58 -308.5q-42 -209 -175.5 -322t-333.5 -113h-441l291 1456h200zM387 707l-110 -553h241q101 0 177 82t100 201q25 124 -15.5 197t-151.5 73h-241z" />
<glyph unicode="&#x42d;" horiz-adv-x="1099" d="M237 989l-2 6q42 231 184 357t348 126q188 0 283 -176.5t42 -443.5l-52 -260q-59 -291 -213 -454.5t-360 -163.5q-192 0 -291 130t-53 356h201q-35 -171 9 -251.5t165 -80.5q109 0 204.5 131t135.5 331l15 77h-417l30 154h418l7 31q43 218 3.5 341t-159.5 123 q-111 0 -193 -87t-113 -246h-192z" />
<glyph unicode="&#x42e;" horiz-adv-x="1546" d="M1496 596q-59 -293 -213 -455t-372 -162q-201 0 -314.5 181.5t-60.5 446.5l4 23h-152l-126 -630h-200l291 1456h200l-134 -671h153l15 74q58 293 207 455.5t363 162.5q205 0 323 -183t66 -447zM1347 849q42 214 -20.5 341t-201.5 127q-117 0 -207 -125.5t-131 -330.5 l-51 -254q-43 -217 15 -343.5t191 -126.5q122 0 217 126t137 333z" />
<glyph unicode="&#x42f;" horiz-adv-x="1047" d="M172 0h-216l394 634q-95 52 -129 144.5t-5 236.5q41 206 183.5 323.5t328.5 117.5h393l-291 -1456h-201l113 568h-223zM889 1300h-192q-113 0 -182.5 -71.5t-98.5 -216.5q-26 -128 19 -210t146 -82h192z" />
<glyph unicode="&#x430;" horiz-adv-x="922" d="M552 0q-2 40 -2 74t4 67q-57 -72 -129.5 -117t-149.5 -45q-122 0 -183.5 88t-32.5 230q33 165 148.5 248.5t301.5 83.5h140l22 111q20 105 -8.5 157.5t-105.5 52.5q-63 0 -116 -50.5t-67 -124.5l-191 1l-2 6q22 133 139.5 226.5t279.5 93.5q144 0 225 -96t47 -268 l-101 -502q-13 -66 -17 -122t1 -114h-203zM352 135q61 0 124.5 42t102.5 104l44 222h-142q-80 0 -142 -61t-78 -144q-16 -78 7 -120.5t84 -42.5z" />
<glyph unicode="&#x431;" horiz-adv-x="954" d="M605 1016q168 0 250 -139t48 -353l-4 -27q-39 -239 -167 -378.5t-318 -139.5q-181 0 -268 145.5t-50 372.5l1 11l22 138q54 340 193.5 525.5t327.5 226.5q91 22 138 55t59 101h153l3 -6q-25 -172 -106.5 -226.5t-253.5 -84.5q-98 -19 -176 -99.5t-119 -224.5l4 -5 q53 49 121.5 78.5t141.5 29.5zM554 861q-97 0 -164.5 -97t-89.5 -240l-4 -27q-27 -165 6 -264.5t136 -99.5q97 0 165.5 103.5t94.5 260.5l4 27q24 152 -10.5 244.5t-137.5 92.5z" />
<glyph unicode="&#x432;" horiz-adv-x="965" d="M42 0l216 1082h355q162 0 248.5 -76t58.5 -220q-17 -83 -69.5 -142.5t-135.5 -88.5q91 -23 128 -91t19 -159q-33 -161 -136 -233t-274 -72h-410zM337 476l-65 -324h210q69 0 117.5 42.5t64.5 120.5q15 81 -12.5 121t-104.5 40h-210zM365 619h160q75 0 126 39t66 113 q16 84 -17 120t-118 36h-155z" />
<glyph unicode="&#x433;" horiz-adv-x="718" d="M793 925h-376l-185 -925h-200l216 1082h576z" />
<glyph unicode="&#x434;" horiz-adv-x="1052" d="M62 154q91 88 145 199.5t108 340.5l86 388h609l-186 -928h123l-111 -474h-184l64 320h-554l-64 -320h-184l77 474h71zM515 694q-46 -188 -109 -320.5t-141 -219.5h360l152 761h-214z" />
<glyph unicode="&#x435;" horiz-adv-x="899" d="M417 -21q-178 0 -271 135t-59 342l25 158q35 220 163.5 354t297.5 134q170 0 247.5 -127t44.5 -336l-22 -140h-550l-7 -43q-24 -146 18 -234.5t150 -88.5q77 0 140 27t122 77l43 -126q-58 -58 -146 -95t-196 -37zM548 946q-78 0 -141.5 -86t-90.5 -216h351l7 41 q19 119 -11.5 190t-114.5 71z" />
<glyph unicode="&#x436;" horiz-adv-x="1371" d="M892 462h-100l-92 -462h-200l92 462h-97l-294 -462h-254l419 590l-184 492h250l105 -447h89l90 447h200l-90 -447h94l283 447h248l-381 -493l185 -589h-255z" />
<glyph unicode="&#x437;" horiz-adv-x="870" d="M481 624q67 0 109 42t58 117q15 77 -8.5 122t-97.5 45q-61 0 -115 -48t-68 -121h-191l-2 6q25 149 137.5 231t261.5 82q152 0 233 -82.5t52 -228.5q-17 -81 -66 -142t-122 -94q67 -34 95.5 -98t10.5 -153q-32 -160 -146 -240.5t-281 -80.5q-136 0 -227.5 86t-55.5 244 l2 5h192q-17 -84 16 -135.5t110 -51.5q71 0 123 50.5t67 127.5q19 95 -9 133.5t-107 38.5h-137l29 145h137z" />
<glyph unicode="&#x438;" horiz-adv-x="971" d="M784 1082h200l-216 -1082h-200l143 718l-6 2l-472 -720h-201l216 1082h201l-144 -719l6 -2z" />
<glyph unicode="&#x439;" horiz-adv-x="971" d="M784 1082h200l-216 -1082h-200l143 718l-6 2l-472 -720h-201l216 1082h201l-144 -719l6 -2zM962 1529l2 -6q-15 -122 -100 -194t-211 -72q-122 0 -185.5 75t-39.5 192l2 5h150q-11 -69 10.5 -109.5t82.5 -40.5q56 0 91.5 42.5t46.5 107.5h151z" />
<glyph unicode="&#x43a;" horiz-adv-x="942" d="M426 457h-93l-91 -457h-201l216 1082h201l-91 -453h89l321 453h243l2 -5l-414 -500l229 -577h-261z" />
<glyph unicode="&#x43b;" horiz-adv-x="973" d="M986 1082l-216 -1082h-201l184 925h-247l-62 -312q-69 -339 -168.5 -476t-282.5 -137h-42l32 162l31 1q77 0 127.5 100t101.5 350l93 469h650z" />
<glyph unicode="&#x43c;" horiz-adv-x="1268" d="M593 250l6 -1l417 833h252l-216 -1082h-202l137 689l-6 2l-367 -691h-136l-92 695h-6l-138 -695h-200l216 1082h252z" />
<glyph unicode="&#x43d;" horiz-adv-x="971" d="M767 0h-201l92 462h-333l-92 -462h-201l216 1082h201l-93 -466h333l93 466h201z" />
<glyph unicode="&#x43e;" d="M105 609q35 224 163 358.5t318 134.5q179 0 268 -140t55 -353l-22 -138q-36 -225 -163.5 -358.5t-315.5 -133.5q-181 0 -270.5 139t-54.5 353zM283 471q-25 -154 10 -246t139 -92q96 0 163 96t91 242l22 138q24 151 -10.5 244t-136.5 93q-99 0 -166 -96t-90 -241z" />
<glyph unicode="&#x43f;" horiz-adv-x="971" d="M768 0h-201l184 925h-334l-184 -925h-201l216 1082h736z" />
<glyph unicode="&#x440;" d="M893 487q-51 -255 -156 -381.5t-268 -126.5q-71 0 -127 30t-93 86l-102 -511h-201l299 1498h180l-9 -94q50 56 111.5 85t131.5 29q152 0 220.5 -170t18.5 -424zM697 508q39 196 10.5 316t-128.5 120q-54 0 -102.5 -40t-87.5 -107l-110 -551q17 -55 55.5 -84t102.5 -29 q92 0 157 94.5t98 259.5z" />
<glyph unicode="&#x441;" horiz-adv-x="889" d="M426 133q68 0 127 58.5t75 156.5h179l2 -6q-23 -159 -140.5 -261t-266.5 -102q-186 0 -270.5 138.5t-51.5 347.5l24 149q35 219 158.5 353.5t318.5 134.5q152 0 235 -111t55 -288h-187q18 112 -17 177.5t-111 65.5q-104 0 -166.5 -95t-84.5 -237l-24 -149 q-24 -152 5.5 -242t139.5 -90z" />
<glyph unicode="&#x442;" horiz-adv-x="848" d="M905 927h-283l-185 -927h-202l185 927h-278l31 155h763z" />
<glyph unicode="&#x443;" horiz-adv-x="863" d="M397 373l1 -60l6 -1l346 770h218l-610 -1250q-57 -111 -135.5 -190t-195.5 -79q-23 0 -50.5 5.5t-53.5 12.5l52 150q11 -2 28.5 -4t27.5 -2q51 0 96.5 52.5t75.5 117.5l55 108l-102 1079h218z" />
<glyph unicode="&#x444;" horiz-adv-x="1228" d="M99 528q55 277 166 425.5t269 148.5q29 0 55 -6.5t49 -17.5l97 482h202l-97 -483q28 12 59 18.5t65 6.5q143 0 199.5 -159.5t6.5 -414.5l-5 -21q-51 -256 -160 -392t-264 -136q-33 0 -62 7t-53 20l-84 -422h-202l83 416q-27 -10 -55.5 -15.5t-59.5 -5.5 q-142 0 -201.5 146.5t-12.5 381.5zM969 528q39 197 19 307.5t-111 110.5q-18 0 -34 -3t-31 -8l-159 -794q13 -4 29 -6t35 -2q83 0 148.5 104t98.5 270zM295 507q-37 -182 -16.5 -278t111.5 -96q16 0 31 2t30 7l159 795q-13 4 -26.5 6.5t-29.5 2.5q-84 0 -151 -118t-103 -300 z" />
<glyph unicode="&#x445;" horiz-adv-x="863" d="M465 688l6 -1l220 395h229l-357 -534l193 -548h-228l-98 407l-6 1l-228 -408h-228l368 548l-187 534h227z" />
<glyph unicode="&#x446;" horiz-adv-x="1022" d="M248 1082h201l-185 -928h334l185 928h201l-186 -928h121l-110 -475h-184l64 321h-657z" />
<glyph unicode="&#x447;" horiz-adv-x="934" d="M730 0h-200l78 391q-40 -13 -80.5 -19t-78.5 -6q-169 0 -251 101t-40 309l61 306h200l-61 -306q-30 -148 0 -201.5t122 -53.5q40 0 79.5 7t79.5 20l107 534h200z" />
<glyph unicode="&#x448;" horiz-adv-x="1380" d="M449 1082l-185 -928h269l185 928h201l-185 -928h270l185 928h200l-216 -1082h-1141l216 1082h201z" />
<glyph unicode="&#x449;" horiz-adv-x="1463" d="M443 1082l-185 -928h269l185 928h201l-185 -928h270l185 928h200l-186 -928h154l-111 -475h-184l64 321h-1094l216 1082h201z" />
<glyph unicode="&#x44a;" horiz-adv-x="1083" d="M548 717h188q155 0 234 -101t49 -256q-34 -169 -146 -264.5t-280 -95.5h-388l185 927h-252l31 155h452zM517 561l-81 -407h188q72 0 124 58.5t69 143.5q18 91 -8 148t-104 57h-188z" />
<glyph unicode="&#x44b;" horiz-adv-x="1360" d="M385 717h188q155 0 234 -101t49 -256q-34 -169 -146 -264.5t-280 -95.5h-388l216 1082h200zM1130 0h-201l216 1082h201zM354 561l-81 -407h188q72 0 124 58.5t69 143.5q18 91 -8 148t-104 57h-188z" />
<glyph unicode="&#x44c;" horiz-adv-x="937" d="M385 717h188q155 0 234 -101t49 -256q-34 -169 -146 -264.5t-280 -95.5h-388l216 1082h200zM354 561l-81 -407h188q72 0 124 58.5t69 143.5q18 91 -8 148t-104 57h-188z" />
<glyph unicode="&#x44d;" horiz-adv-x="897" d="M529 946q-65 0 -124 -59t-78 -155h-181l-3 6q29 162 149.5 263t267.5 101q172 0 251.5 -157.5t34.5 -385.5l-8 -38q-50 -249 -182 -395.5t-319 -146.5q-145 0 -225.5 111t-45.5 287h190q-23 -117 7 -180.5t105 -63.5q85 0 154 99t106 246h-271l27 139h272 q23 151 -5.5 240t-121.5 89z" />
<glyph unicode="&#x44e;" horiz-adv-x="1371" d="M368 622h148q38 218 165 349t314 131q179 0 268 -140t55 -353l-22 -138q-36 -225 -163.5 -358.5t-315.5 -133.5q-180 0 -269.5 138t-56.5 351h-154l-93 -468h-201l216 1082h201zM692 471q-25 -154 10 -246t139 -92q96 0 163 96t91 242l22 138q24 151 -10.5 244t-136.5 93 q-99 0 -166 -96t-90 -241z" />
<glyph unicode="&#x44f;" horiz-adv-x="942" d="M945 1082l-216 -1082h-200l82 413h-163l-281 -413h-208l308 450q-76 41 -108.5 119t-12.5 176q31 157 143 247t279 90h377zM345 741q-16 -79 11 -130.5t99 -51.5h185l74 368h-177q-71 0 -124 -56t-68 -130z" />
<glyph unicode="&#x450;" horiz-adv-x="899" d="M417 -21q-178 0 -271 135t-59 342l25 158q35 220 163.5 354t297.5 134q170 0 247.5 -127t44.5 -336l-22 -140h-550l-7 -43q-24 -146 18 -234.5t150 -88.5q77 0 140 27t122 77l43 -126q-58 -58 -146 -95t-196 -37zM548 946q-78 0 -141.5 -86t-90.5 -216h351l7 41 q19 119 -11.5 190t-114.5 71zM683 1240h-166l-182 266h230z" />
<glyph unicode="&#x451;" horiz-adv-x="899" d="M417 -21q-178 0 -271 135t-59 342l25 158q35 220 163.5 354t297.5 134q170 0 247.5 -127t44.5 -336l-22 -140h-550l-7 -43q-24 -146 18 -234.5t150 -88.5q77 0 140 27t122 77l43 -126q-58 -58 -146 -95t-196 -37zM548 946q-78 0 -141.5 -86t-90.5 -216h351l7 41 q19 119 -11.5 190t-114.5 71zM900 1296h-202l30 185h202zM490 1296h-202l30 185h202z" />
<glyph unicode="&#x452;" horiz-adv-x="961" d="M675 1213h-206l-51 -255l5 -4q52 71 121 109.5t146 38.5q130 0 190 -109.5t16 -330.5l-42 -211h1l-105 -525q-38 -186 -129.5 -274.5t-229.5 -88.5q-27 0 -52 4.5t-50 13.5l41 151q14 -5 37.5 -9.5t40.5 -4.5q44 0 82.5 56t58.5 152l15 74h-1l133 664q32 160 4.5 220 t-109.5 60q-54 0 -107 -37t-96 -100l-161 -807h-201l242 1213h-124l28 141h124l42 206h201l-42 -206h206z" />
<glyph unicode="&#x453;" horiz-adv-x="718" d="M793 925h-376l-185 -925h-200l216 1082h576zM624 1481h221l2 -6l-269 -260h-159z" />
<glyph unicode="&#x454;" horiz-adv-x="898" d="M431 133q68 0 127 58.5t75 156.5h179l2 -6q-23 -159 -140.5 -261t-266.5 -102q-186 0 -270.5 138.5t-51.5 347.5l24 149q35 219 158.5 353.5t318.5 134.5q152 0 235 -111t55 -288h-187q18 112 -17 177.5t-111 65.5q-104 0 -166.5 -95t-84.5 -237l-1 -7h283l-27 -139h-279 v-3q-24 -152 5.5 -242t139.5 -90z" />
<glyph unicode="&#x455;" horiz-adv-x="860" d="M565 271q10 65 -21 107t-131 95q-149 64 -215 138t-47 191q21 129 128.5 214.5t262.5 85.5q153 0 236 -95.5t57 -235.5l-2 -5h-193q12 80 -19 134t-102 54q-67 0 -115.5 -44t-56.5 -100q-11 -64 17 -98.5t133 -93.5q153 -61 219 -138.5t47 -198.5q-23 -139 -132 -220.5 t-270 -81.5q-165 0 -251 103t-59 237l2 5h188q-14 -105 28.5 -151.5t117.5 -46.5q70 0 118.5 41t59.5 104z" />
<glyph unicode="&#x456;" horiz-adv-x="455" d="M242 0h-200l216 1082h200zM515 1366h-200l39 194h200z" />
<glyph unicode="&#x457;" horiz-adv-x="462" d="M243 0h-201l216 1082h201zM706 1274h-202l30 185h202zM296 1274h-202l30 185h202z" />
<glyph unicode="&#x458;" horiz-adv-x="459" d="M466 1082l-231 -1156q-38 -185 -129 -274t-229 -89q-26 0 -49.5 4.5t-49.5 13.5l42 155q15 -6 33.5 -10t34.5 -4q47 0 87 51.5t60 152.5l231 1156h200zM520 1369h-201l38 191h201z" />
<glyph unicode="&#x459;" horiz-adv-x="1434" d="M967 1082l-80 -401h187q155 0 236.5 -96t52.5 -242q-33 -161 -144.5 -252t-280.5 -91h-388l184 925h-217l-62 -312q-68 -336 -173 -474.5t-290 -138.5h-40l31 156l28 1q74 0 134 108.5t109 347.5l93 469h620zM856 526l-75 -374h187q73 0 125.5 57.5t68.5 135.5 q16 81 -11.5 131t-107.5 50h-187z" />
<glyph unicode="&#x45a;" horiz-adv-x="1447" d="M365 662h333l84 420h201l-80 -401h187q155 0 236.5 -96t52.5 -242q-33 -161 -144.5 -252t-280.5 -91h-388l101 508h-333l-101 -508h-201l216 1082h201zM872 526l-75 -374h187q73 0 125.5 57.5t68.5 135.5q16 81 -11.5 131t-107.5 50h-187z" />
<glyph unicode="&#x45b;" horiz-adv-x="961" d="M691 1222h-220l-53 -264l5 -4q52 71 121 109.5t146 38.5q130 0 190 -109.5t16 -330.5l-132 -662h-201l133 664q32 160 4.5 220t-109.5 60q-54 0 -107 -37t-96 -100l-161 -807h-201l244 1222h-110l28 141h110l40 197h201l-40 -197h220z" />
<glyph unicode="&#x45c;" horiz-adv-x="942" d="M426 457h-93l-91 -457h-201l216 1082h201l-91 -453h89l321 453h243l2 -5l-414 -500l229 -577h-261zM727 1480h221l2 -6l-269 -260h-159z" />
<glyph unicode="&#x45d;" horiz-adv-x="971" d="M784 1082h200l-216 -1082h-200l143 718l-6 2l-472 -720h-201l216 1082h201l-144 -719l6 -2zM744 1218h-166l-182 266h230z" />
<glyph unicode="&#x45e;" horiz-adv-x="863" d="M397 373l1 -60l6 -1l346 770h218l-610 -1250q-57 -111 -135.5 -190t-195.5 -79q-23 0 -50.5 5.5t-53.5 12.5l52 150q11 -2 28.5 -4t27.5 -2q51 0 96.5 52.5t75.5 117.5l55 108l-102 1079h218zM906 1529l2 -6q-15 -122 -100 -194t-211 -72q-122 0 -185.5 75t-39.5 192l2 5 h150q-11 -69 10.5 -109.5t82.5 -40.5q56 0 91.5 42.5t46.5 107.5h151z" />
<glyph unicode="&#x45f;" horiz-adv-x="971" d="M449 1082l-185 -928h334l185 928h201l-216 -1082h-266l-71 -355h-201l71 355h-269l216 1082h201z" />
<glyph unicode="&#x460;" horiz-adv-x="1534" d="M1610 1456l-208 -1039q-46 -227 -166 -332.5t-290 -105.5q-81 0 -143 40.5t-92 120.5q-60 -83 -140.5 -122t-175.5 -39q-152 0 -233 114.5t-39 323.5l208 1039h199l-208 -1039q-30 -148 -0.5 -216t104.5 -68q76 0 141 73.5t93 210.5l208 1039h204l-208 -1039 q-30 -148 2 -216t111 -68q72 0 134.5 73.5t90.5 210.5l208 1039h200z" />
<glyph unicode="&#x461;" horiz-adv-x="1338" d="M1379 1082l-138 -692q-43 -214 -152.5 -312.5t-263.5 -98.5q-72 0 -126 34t-81 102q-54 -70 -125 -103t-155 -33q-138 0 -210.5 107t-32.5 304l138 692h200l-138 -692q-28 -136 -7.5 -196.5t81.5 -60.5q64 0 119 66t81 191l138 692h200l-138 -692q-28 -136 -4.5 -196.5 t91.5 -60.5q58 0 107.5 66t75.5 191l138 692h202z" />
<glyph unicode="&#x462;" horiz-adv-x="1062" d="M648 1108h-181l-49 -246h241q184 0 279 -118.5t58 -308.5q-42 -209 -175.5 -322t-333.5 -113h-441l221 1108h-150l28 141h150l42 207h200l-42 -207h181zM387 707l-110 -553h241q101 0 177 82t100 201q25 124 -15.5 197t-151.5 73h-241z" />
<glyph unicode="&#x463;" horiz-adv-x="937" d="M687 1081h-229l-67 -338h187q155 0 233.5 -104.5t46.5 -264.5q-36 -176 -148.5 -275t-280.5 -99h-388l216 1081h-137l28 141h137l68 338h201l-68 -338h229zM360 588l-87 -434h187q72 0 125.5 63t71.5 153q18 95 -7 156.5t-103 61.5h-187z" />
<glyph unicode="&#x464;" horiz-adv-x="1503" d="M421 833h153l6 31q58 293 201 453.5t347 160.5q196 0 304 -135.5t80 -363.5h-199q18 164 -31.5 253.5t-173.5 89.5q-108 0 -197.5 -128t-129.5 -328l-7 -33h392l-31 -155h-392l-14 -74q-44 -215 7.5 -342.5t177.5 -127.5q109 0 177.5 79t116.5 247h192l2 -6 q-58 -227 -182 -350.5t-323 -123.5q-196 0 -309.5 180t-59.5 444l15 74h-153l-135 -678h-200l291 1456h200z" />
<glyph unicode="&#x465;" horiz-adv-x="1267" d="M356 615h117q35 218 158.5 352.5t318.5 134.5q152 0 235 -111t55 -288h-187q18 112 -17 177.5t-111 65.5q-104 0 -166.5 -95t-84.5 -236h310l-28 -141h-305l-1 -9q-24 -152 5.5 -242t139.5 -90q68 0 127 58.5t75 156.5h179l2 -6q-23 -159 -140.5 -261t-266.5 -102 q-186 0 -270.5 138.5t-51.5 347.5l1 9h-122l-94 -474h-201l216 1082h201z" />
<glyph unicode="&#x466;" horiz-adv-x="1070" d="M738 437h-101l-87 -437h-180l87 437h-91l-207 -437h-207l709 1456h193l122 -1456h-207zM438 590h289l-37 518l-6 1z" />
<glyph unicode="&#x467;" horiz-adv-x="932" d="M581 308h-70l-61 -308h-156l61 308h-68l-147 -308h-204l556 1082h194l127 -1082h-205zM356 451h213l-25 303l-3 80l-5 1l-35 -81z" />
<glyph unicode="&#x468;" horiz-adv-x="1531" d="M389 590h284l422 866h193l122 -1456h-207l-31 437h-101l-87 -437h-180l87 437h-91l-207 -437h-207l213 438h-241l-87 -438h-200l291 1456h200zM872 590h289l-37 518l-6 1z" />
<glyph unicode="&#x469;" horiz-adv-x="1314" d="M342 451h205l324 631h194l127 -1082h-205l-27 308h-70l-61 -308h-156l61 308h-68l-147 -308h-204l159 309h-161l-61 -309h-201l216 1082h201zM735 451h213l-25 303l-3 80l-5 1l-35 -81z" />
<glyph unicode="&#x46a;" horiz-adv-x="1455" d="M990 797h7q191 0 281.5 -103.5t46.5 -327.5l-73 -366h-200l73 366q32 164 -5.5 219.5t-153.5 55.5h-84l-7 -10l-126 -631h-200l128 641h-102q-106 0 -173 -62t-97 -213l-73 -366h-201l73 366q48 243 169.5 337t332.5 94h27l-193 659h1007zM818 845l6 -1l297 455h-417z " />
<glyph unicode="&#x46b;" horiz-adv-x="1241" d="M833 600q148 -14 215.5 -116t27.5 -304l-36 -180h-201l36 180q32 161 3 216t-123 55h-26l-90 -451h-201l90 451h-33q-86 0 -143 -61.5t-86 -209.5l-36 -180h-200l36 180q45 226 147.5 319.5t273.5 101.5l-141 481h822zM666 643l6 -1l185 296h-258z" />
<glyph unicode="&#x46c;" horiz-adv-x="1926" d="M501 0l73 366q17 90 45 158t66 118h-292l-128 -642h-200l291 1456h200l-132 -658h678l-192 658h1007l-457 -659h7q191 0 281.5 -103.5t46.5 -327.5l-73 -366h-200l73 366q32 164 -5.5 219.5t-153.5 55.5h-84l-7 -10l-126 -631h-200l128 641h-102q-106 0 -173 -62 t-97 -213l-73 -366h-201zM1288 845l6 -1l297 455h-417z" />
<glyph unicode="&#x46d;" horiz-adv-x="1672" d="M461 0l36 180q17 89 44 157t63 117h-271l-90 -454h-201l216 1082h201l-96 -479h555l-141 479h822l-335 -482q148 -14 215.5 -116t27.5 -304l-36 -180h-201l36 180q32 161 3 216t-123 55h-26l-90 -451h-201l90 451h-33q-86 0 -143 -61.5t-86 -209.5l-36 -180h-200z M1097 643l6 -1l185 296h-258z" />
<glyph unicode="&#x46e;" horiz-adv-x="878" d="M296 825h118q99 0 166.5 65t90.5 176q22 111 -16.5 172t-140.5 61h-225l31 157h225q172 0 268 -103t60 -283q-24 -118 -94 -201t-175 -124q100 -43 144 -130.5t20 -211.5q-42 -210 -170.5 -314.5t-310.5 -104.5h-44q-50 0 -82.5 -30t-42.5 -83q-14 -70 13.5 -110.5 t72.5 -67.5l-91 -124q-102 36 -151 119t-27 199q27 132 112 193t220 61h44q87 0 159 72t96 186q28 143 -19 205.5t-168 62.5h-115l23 114zM691 1750l134 150h179l-4 -17l-266 -240h-131l-168 239l4 18h176z" />
<glyph unicode="&#x46f;" horiz-adv-x="842" d="M470 1082q159 0 252 -79.5t66 -218.5q-17 -85 -71.5 -146t-138.5 -94q82 -34 119.5 -95t21.5 -145q-32 -160 -146 -240t-281 -80h-39q-54 0 -88.5 -30t-44.5 -83q-14 -70 11.5 -110.5t68.5 -67.5l-89 -120q-90 39 -138.5 121t-28.5 193q27 127 108 186t210 59h39 q80 0 141.5 47.5t77.5 124.5q18 91 -25.5 130t-146.5 39h-122l6 32l22 109h125q84 0 137.5 44.5t69.5 121.5q14 72 -21.5 112.5t-123.5 40.5h-226l29 149h226zM585 1401l134 150h179l-4 -17l-266 -240h-131l-168 239l4 18h176z" />
<glyph unicode="&#x470;" horiz-adv-x="1196" d="M709 512l5 -2q101 18 182.5 122.5t115.5 272.5l110 551h201l-110 -551q-53 -263 -195 -404t-344 -162l-68 -339h-199l68 339q-179 25 -269 174.5t-41 391.5l110 551h200l-110 -551q-37 -182 1 -282t136 -115h6l190 948h199z" />
<glyph unicode="&#x471;" horiz-adv-x="1224" d="M834 1081l-184 -921l5 -3q123 30 209.5 149t117.5 273q23 124 23 248.5t-16 254.5h194q25 -103 27.5 -226.5t-27.5 -276.5q-53 -259 -189.5 -414.5t-378.5 -180.5l-89 -446h-201l89 450q-188 31 -274.5 182t-31.5 422l98 490h202l-98 -492q-42 -209 -4 -312.5t136 -120.5 h6l185 924h201z" />
<glyph unicode="&#x472;" horiz-adv-x="1157" d="M1046 527q-56 -276 -208.5 -412t-371.5 -136q-198 0 -301 147t-52 401l80 400q55 275 205.5 412.5t366.5 137.5q200 0 305.5 -148.5t55.5 -401.5zM364 794h535l28 136q40 202 -10.5 294.5t-183.5 92.5q-119 0 -211.5 -100.5t-129.5 -286.5zM871 654h-535l-25 -127 q-41 -205 7.5 -297.5t178.5 -92.5q122 0 216.5 100.5t132.5 289.5z" />
<glyph unicode="&#x473;" horiz-adv-x="962" d="M104 609q35 224 163 358.5t318 134.5q179 0 268 -140t55 -353l-22 -138q-36 -225 -163.5 -358.5t-315.5 -133.5q-181 0 -270.5 139t-54.5 353zM431 133q96 0 163 96t91 242v1h-403v-1q-25 -154 10 -246t139 -92zM560 946q-98 0 -165 -95t-91 -238h403q23 150 -11.5 241.5 t-135.5 91.5z" />
<glyph unicode="&#x474;" horiz-adv-x="1079" d="M485 334l2 -81l6 -1l35 81l355 846q72 157 147 226.5t178 69.5l36 -1l-35 -163h-16q-37 0 -69 -34t-66 -120l-522 -1157h-193l-111 1456h214z" />
<glyph unicode="&#x475;" horiz-adv-x="863" d="M381 325l-1 -70l6 -1l28 71l197 509q64 138 137.5 202.5t160.5 64.5q23 0 43.5 -6t36.5 -18l-47 -149q-5 3 -15.5 6.5t-19.5 3.5q-30 0 -60 -30t-51 -90l-375 -818h-177l-76 1082h208z" />
<glyph unicode="&#x476;" horiz-adv-x="1079" d="M485 334l2 -81l6 -1l35 81l355 846q72 157 147 226.5t178 69.5l36 -1l-35 -163h-16q-37 0 -69 -34t-66 -120l-522 -1157h-193l-111 1456h214zM710 1592h-171l-186 266h214zM957 1592h-161l-144 266h204z" />
<glyph unicode="&#x477;" horiz-adv-x="863" d="M381 325l-1 -70l6 -1l28 71l197 509q64 138 137.5 202.5t160.5 64.5q23 0 43.5 -6t36.5 -18l-47 -149q-5 3 -15.5 6.5t-19.5 3.5q-30 0 -60 -30t-51 -90l-375 -818h-177l-76 1082h208zM573 1308h-171l-186 266h214zM820 1308h-161l-144 266h204z" />
<glyph unicode="&#x478;" horiz-adv-x="1978" d="M1091 596q-59 -293 -213 -455t-372 -162q-201 0 -314.5 181.5t-60.5 446.5l51 252q58 293 207 455.5t363 162.5q205 0 323 -183t66 -447zM942 849q42 214 -20.5 341t-201.5 127q-117 0 -207 -125.5t-131 -330.5l-51 -254q-43 -217 15 -343.5t191 -126.5q122 0 217 126 t137 333zM1512 373l1 -60l6 -1l346 770h218l-610 -1250q-57 -111 -135.5 -190t-195.5 -79q-23 0 -50.5 5.5t-53.5 12.5l52 150q11 -2 28.5 -4t27.5 -2q51 0 96.5 52.5t75.5 117.5l55 108l-102 1079h218z" />
<glyph unicode="&#x479;" horiz-adv-x="1823" d="M105 609q35 224 163 358.5t318 134.5q179 0 268 -140t55 -353l-22 -138q-36 -225 -163.5 -358.5t-315.5 -133.5q-181 0 -270.5 139t-54.5 353zM283 471q-25 -154 10 -246t139 -92q96 0 163 96t91 242l22 138q24 151 -10.5 244t-136.5 93q-99 0 -166 -96t-90 -241z M1357 373l1 -60l6 -1l346 770h218l-610 -1250q-57 -111 -135.5 -190t-195.5 -79q-23 0 -50.5 5.5t-53.5 12.5l52 150q11 -2 28.5 -4t27.5 -2q51 0 96.5 52.5t75.5 117.5l55 108l-102 1079h218z" />
<glyph unicode="&#x47a;" horiz-adv-x="1157" d="M1093 596q-59 -293 -213 -455q-132 -139 -310 -158l-24 -123h-158l26 130q-135 34 -221 170q-113 182 -60 447l51 252q58 293 207 455q133 146 318 161l23 112h158l-25 -126q128 -37 212 -167q118 -183 66 -447zM944 849q42 214 -21 341q-34 70 -92 101l-19 -95h-158 l23 116q-90 -20 -162 -121q-90 -125 -131 -330l-51 -254q-43 -217 15 -344q35 -77 99 -108l21 104h158l-23 -113q84 25 153 117q95 126 137 333z" />
<glyph unicode="&#x47b;" horiz-adv-x="961" d="M449 -126h-158l23 116q-112 27 -177 128q-89 139 -54 353l22 138q35 224 163 358q111 118 270 133l22 107h157l-24 -120q101 -31 161 -125q89 -140 55 -353l-22 -138q-36 -225 -164 -359q-105 -110 -253 -129zM283 471q-25 -154 10 -246q18 -48 54 -71l20 102h158 l-22 -108q51 23 92 81q67 96 91 242l22 138q24 151 -11 244q-14 37 -39 60l-16 -83h-157l21 108q-64 -20 -111 -88q-67 -96 -90 -241z" />
<glyph unicode="&#x47c;" horiz-adv-x="1529" d="M1237 1447l6 1q149 5 229 -115.5t37 -338.5l-111 -555q-48 -238 -168 -349t-286 -111q-82 0 -144.5 39t-93.5 115q-59 -80 -138.5 -117t-172.5 -37q-152 0 -231.5 120.5t-35.5 339.5l111 555q47 237 165.5 348t278.5 105l5 -2l-29 -145q-68 0 -130 -80t-91 -226 l-111 -555q-33 -160 -4.5 -233t103.5 -73q76 0 141 73.5t93 210.5l86 428h194l-86 -428q-30 -148 4 -216t117 -68q69 0 131 79t92 227l111 555q31 159 2.5 232.5t-103.5 73.5zM1379 1714l-23 -112h-28q-94 0 -208.5 68.5t-149.5 68.5q-36 0 -67.5 -33.5t-42.5 -88.5l-3 -18 h-107l7 34q22 113 81.5 166.5t151.5 53.5q50 0 160 -69.5t202 -69.5h27zM902 1314l-56 55l70 115l28 142h149l-26 -129z" />
<glyph unicode="&#x47d;" horiz-adv-x="1327" d="M1017 1086l6 1q138 5 211.5 -106.5t33.5 -315.5l-51 -257q-45 -222 -152.5 -325.5t-255.5 -103.5q-70 0 -123.5 35.5t-79.5 104.5q-53 -72 -121 -106t-147 -34q-136 0 -206.5 112t-28.5 317l51 257q44 221 154 324t259 97l5 -2l-29 -144q-58 0 -110 -71.5t-78 -203.5 l-51 -257q-30 -145 -12 -209.5t75 -58.5l6 -1q55 -5 107 61t78 190l44 218h194l-44 -218q-28 -135 -2.5 -196t90.5 -61q52 0 101 71t76 204l51 257q28 144 5.5 209.5t-85.5 65.5zM1229 1372l-22 -112h-28q-94 0 -209 68t-150 68q-36 0 -67.5 -33t-41.5 -88l-4 -18h-108l7 33 q22 113 82 167t152 54q50 0 160.5 -69.5t201.5 -69.5h27zM760 1012l-48 82l63 86l13 71l142 -31l-18 -97z" />
<glyph unicode="&#x47e;" horiz-adv-x="1535" d="M666 1691l20 99h690l-19 -99h-279l-24 -121h-146l24 121h-266zM1610 1456l-208 -1039q-46 -227 -166 -332.5t-290 -105.5q-81 0 -143 40.5t-92 120.5q-60 -83 -140.5 -122t-175.5 -39q-152 0 -233 114.5t-39 323.5l208 1039h199l-208 -1039q-30 -148 -0.5 -216t104.5 -68 q76 0 141 73.5t93 210.5l208 1039h204l-208 -1039q-30 -148 2 -216t111 -68q72 0 134.5 73.5t90.5 210.5l208 1039h200z" />
<glyph unicode="&#x47f;" horiz-adv-x="1339" d="M534 1358l19 99h663l-15 -99h-270l-26 -128h-145l26 128h-252zM1379 1082l-138 -692q-43 -214 -152.5 -312.5t-263.5 -98.5q-72 0 -126 34t-81 102q-54 -70 -125 -103t-155 -33q-138 0 -210.5 107t-32.5 304l138 692h200l-138 -692q-28 -136 -7.5 -196.5t81.5 -60.5 q64 0 119 66t81 191l138 692h200l-138 -692q-28 -136 -4.5 -196.5t91.5 -60.5q58 0 107.5 66t75.5 191l138 692h202z" />
<glyph unicode="&#x480;" horiz-adv-x="1077" d="M514 -370h-200l71 357q-156 35 -229.5 203.5t-25.5 406.5l52 260q58 289 214 454.5t362 165.5q191 0 288 -131t52 -356h-201q34 171 -8 251t-162 80q-110 0 -207.5 -131.5t-136.5 -330.5l-53 -262q-44 -218 -2 -341t162 -123h125z" />
<glyph unicode="&#x481;" horiz-adv-x="910" d="M443 -370h-200l72 359q-136 34 -193.5 182t-16.5 350l8 38q49 249 181 396t321 147q145 0 225 -112t45 -287h-188q22 115 -9 179t-104 64q-93 0 -166 -114t-104 -273l-8 -38q-36 -177 -11 -282.5t127 -105.5h122z" />
<glyph unicode="&#x482;" horiz-adv-x="1056" d="M502 441l198 -172l-80 -113l-201 170l-211 -326h-140l261 398l-199 171l79 112l203 -171l237 376l-199 171l81 114l200 -171l218 342h138l-265 -413l201 -171l-83 -112l-199 170z" />
<glyph unicode="&#x483;" horiz-adv-x="26" d="M-404 1323l-25 -125l-143 1l45 222h440l21 108l142 -1l-41 -205h-439z" />
<glyph unicode="&#x484;" horiz-adv-x="26" d="M-493 1418q93 0 232.5 69.5t190.5 69.5q92 0 131 -54t17 -167l-6 -33h-109l3 18q11 55 -7.5 88t-54.5 33t-179.5 -68t-238.5 -68h-29l23 112h27z" />
<glyph unicode="&#x485;" horiz-adv-x="26" d="M-287 1500l26 132h152l-30 -146l24 -115l-76 -59z" />
<glyph unicode="&#x486;" horiz-adv-x="26" d="M-230 1312l-53 59l70 115l28 146h152l-26 -132z" />
<glyph unicode="&#x488;" horiz-adv-x="0" d="M-495 1267l-2 6q14 84 68.5 133t133.5 49q72 0 110 -53.5t21 -134.5h-90q10 46 -3.5 73.5t-54.5 27.5q-37 0 -64 -29.5t-36 -71.5h-83zM-74 990l-2 6q13 84 67 133t133 49q72 0 110.5 -53.5t22.5 -134.5h-92q9 46 -4.5 73.5t-54.5 27.5q-38 0 -64 -29.5t-34 -71.5h-82z M-26 487l-2 6q13 84 68 133t133 49q73 0 110.5 -53t21.5 -135h-90q9 46 -4.5 73.5t-54.5 27.5q-36 0 -63 -29.5t-35 -71.5h-84zM-287 -32l-2 6q13 83 67.5 132.5t132.5 49.5q72 0 110 -53.5t22 -134.5h-89q8 46 -5.5 73.5t-54.5 27.5q-37 0 -63.5 -29.5t-34.5 -71.5h-83z M-807 -316l-2 6q14 85 68 133.5t132 48.5q74 0 112 -53t21 -135h-90q9 47 -4.5 74t-55.5 27q-36 0 -62.5 -29t-34.5 -72h-84zM-1012 990l-2 6q14 84 68.5 133t133.5 49q73 0 111 -53.5t21 -134.5h-90q10 46 -3.5 73.5t-56.5 27.5q-37 0 -63 -29.5t-35 -71.5h-84zM-1255 487 l-2 6q14 84 69 133t132 49q74 0 111.5 -53t20.5 -135h-89q10 46 -3.5 73.5t-56.5 27.5q-36 0 -62.5 -29.5t-35.5 -71.5h-84zM-1224 -32l-2 6q13 84 67.5 133t132.5 49q74 0 112.5 -53.5t21.5 -134.5h-91q9 46 -4.5 73.5t-55.5 27.5q-36 0 -62.5 -29.5t-34.5 -71.5h-84z" />
<glyph unicode="&#x489;" horiz-adv-x="0" d="M-516 -60l5 -14l-166 -339h-78l128 353h111zM-436 1126l-8 14l167 338h77l-127 -352h-109zM9 631l13 12l244 -124l-20 -98l-265 71zM-967 433l-13 -12l-243 124l20 98l263 -71zM-109 1002l6 16l286 153l42 -68q-34 -23 -275 -200zM-856 21l-4 -17l-290 -153l-41 69 l277 200zM-801 860l-13 2l-53 326l64 69l101 -299zM-167 161l14 -2l54 -325l-66 -71l-100 299z" />
<glyph unicode="&#x48a;" horiz-adv-x="1193" d="M1060 1456h201l-291 -1456h-201l209 1045l-5 3l-723 -1048h-201l291 1456h201l-209 -1046l5 -3zM1141 1872l2 -6q-15 -122 -100 -194t-211 -72q-122 0 -185.5 75t-39.5 192l2 5h150q-11 -69 10.5 -109.5t82.5 -40.5q56 0 91.5 42.5t46.5 107.5h151zM1136 -11l-184 -295 h-119l117 302l37 183h187z" />
<glyph unicode="&#x48b;" horiz-adv-x="971" d="M784 1082h200l-216 -1082h-200l143 718l-6 2l-472 -720h-201l216 1082h201l-144 -719l6 -2zM962 1529l2 -6q-15 -122 -100 -194t-211 -72q-122 0 -185.5 75t-39.5 192l2 5h150q-11 -69 10.5 -109.5t82.5 -40.5q56 0 91.5 42.5t46.5 107.5h151zM934 -11l-184 -295h-119 l117 302l37 183h187z" />
<glyph unicode="&#x48c;" horiz-adv-x="1062" d="M648 1108h-181l-49 -246h241q184 0 279 -118.5t58 -308.5q-42 -209 -175.5 -322t-333.5 -113h-441l221 1108h-150l28 141h150l42 207h200l-42 -207h181zM387 707l-110 -553h241q101 0 177 82t100 201q25 124 -15.5 197t-151.5 73h-241z" />
<glyph unicode="&#x48d;" horiz-adv-x="937" d="M734 1314h-229l-114 -571h187q155 0 233.5 -104.5t46.5 -264.5q-36 -176 -148.5 -275t-280.5 -99h-388l263 1314h-137l28 142h137l36 177h201l-36 -177h229zM360 588l-87 -434h187q72 0 125.5 63t71.5 153q18 95 -7 156.5t-103 61.5h-187z" />
<glyph unicode="&#x48e;" horiz-adv-x="1073" d="M369 574l-115 -574h-201l291 1456h460q182 0 274.5 -124t54.5 -317q-42 -212 -174 -327q-1 -1 -3 -2l80 -135l-104 -86l-88 150q-96 -41 -216 -41h-259zM400 730h259q55 0 103 25l-75 128l104 86l71 -121q51 71 70 165q26 131 -12 209t-147 78h-259z" />
<glyph unicode="&#x48f;" d="M893 487q-51 -255 -156 -382l-5 -6l56 -102l-106 -86l-56 103q-70 -35 -157 -35q-71 0 -127 30t-93 86l-102 -511h-201l299 1498h180l-9 -94q50 56 111.5 85t131.5 29q152 0 220.5 -170t18.5 -424zM697 508q39 196 10.5 316t-128.5 120q-54 0 -102.5 -40t-87.5 -107 l-110 -551q17 -55 55.5 -84t102.5 -29q57 0 104 37l-72 134l104 85l55 -102q40 82 64 200z" />
<glyph unicode="&#x490;" horiz-adv-x="938" d="M1058 1301h-8v-1h-544l-260 -1300h-201l291 1456h553l71 353h200z" />
<glyph unicode="&#x491;" horiz-adv-x="778" d="M810 927h-22v-2h-376l-185 -925h-200l216 1082h397l66 327h201z" />
<glyph unicode="&#x492;" horiz-adv-x="945" d="M588 686h-197l-137 -686h-201l137 686h-133l28 141h133l126 629h745l-31 -156h-544l-95 -473h197z" />
<glyph unicode="&#x493;" horiz-adv-x="718" d="M534 480h-206l-96 -480h-200l96 480h-125l28 141h125l92 461h576l-31 -157h-376l-61 -304h206z" />
<glyph unicode="&#x494;" horiz-adv-x="991" d="M1058 1300h-544l-94 -469h143q213 0 319 -150.5t51 -426.5q-52 -259 -183 -405.5t-336 -141.5l-5 3l27 137q112 0 185.5 113t110.5 290q41 210 -9.5 315t-191.5 105h-143l-134 -670h-201l291 1456h745z" />
<glyph unicode="&#x495;" horiz-adv-x="882" d="M788 925h-376l-57 -282h65q184 0 285 -124t56 -348q-25 -132 -131.5 -269t-263.5 -181l-45 139q96 37 157 120t82 191q33 163 -13.5 237.5t-158.5 74.5h-65l-96 -483h-200l216 1082h576z" />
<glyph unicode="&#x496;" horiz-adv-x="1604" d="M1082 661h-127l-132 -661h-200l132 661h-131l-428 -661h-250l544 784l-227 672h242l157 -632h125l127 632h200l-127 -632h124l406 632h242l-494 -671l228 -785h-249zM1500 -356h-201l102 513h201z" />
<glyph unicode="&#x497;" horiz-adv-x="1371" d="M892 462h-100l-92 -462h-200l92 462h-97l-294 -462h-254l419 590l-184 492h250l105 -447h89l90 447h200l-90 -447h94l283 447h248l-381 -493l185 -589h-255zM1229 -356h-201l102 513h201z" />
<glyph unicode="&#x498;" horiz-adv-x="1025" d="M451 819h138q100 0 168.5 67t91.5 181q24 119 -18.5 186.5t-154.5 67.5q-83 0 -160 -71t-98 -179h-192l-2 6q34 190 170.5 295t312.5 105q184 0 283 -109t60 -303q-23 -111 -91 -195t-168 -128q90 -43 129 -130t15 -210q-42 -212 -183.5 -317.5t-343.5 -105.5 q-163 0 -272 108.5t-64 311.5l3 5h194q-25 -124 22 -197.5t148 -73.5q106 0 188.5 74.5t106.5 192.5q28 145 -15.5 205t-160.5 60h-138l7 36l16 79zM436 -442h-201l102 513h201z" />
<glyph unicode="&#x499;" horiz-adv-x="870" d="M481 624q67 0 109 42t58 117q15 77 -8.5 122t-97.5 45q-61 0 -115 -48t-68 -121h-191l-2 6q25 149 137.5 231t261.5 82q152 0 233 -82.5t52 -228.5q-17 -81 -66 -142t-122 -94q67 -34 95.5 -98t10.5 -153q-32 -160 -146 -240.5t-281 -80.5q-136 0 -227.5 86t-55.5 244 l2 5h192q-17 -84 16 -135.5t110 -51.5q71 0 123 50.5t67 127.5q19 95 -9 133.5t-107 38.5h-137l29 145h137zM364 -441h-201l102 513h201z" />
<glyph unicode="&#x49a;" horiz-adv-x="1089" d="M479 654h-107l-130 -654h-201l291 1456h201l-127 -632h116l433 632h260l-560 -724l284 -732h-230zM972 -356h-201l102 513h201z" />
<glyph unicode="&#x49b;" horiz-adv-x="942" d="M426 457h-93l-91 -457h-201l216 1082h201l-91 -453h89l321 453h243l2 -5l-414 -500l229 -577h-261zM819 -356h-201l102 513h201z" />
<glyph unicode="&#x49c;" horiz-adv-x="1094" d="M1259 1456l-455 -671l197 -785h-254l-118 654h-49l-51 -256h-130l51 256h-74l-130 -654h-200l291 1456h200l-128 -639h73l54 267h130l-54 -267h46l358 639h243z" />
<glyph unicode="&#x49d;" horiz-adv-x="993" d="M1094 1082l-360 -502l163 -580h-256l-82 457h-34l-40 -204h-124l40 204h-69l-91 -457h-201l216 1082h201l-91 -453h69l44 218h124l-44 -218h34l251 453h250z" />
<glyph unicode="&#x49e;" horiz-adv-x="1109" d="M499 654h-106l-131 -654h-201l232 1160h-162l28 141h162l31 155h201l-31 -155h168l-28 -141h-168l-67 -336h115l433 632h260l-560 -724l284 -732h-230z" />
<glyph unicode="&#x49f;" horiz-adv-x="913" d="M429 496h-80l-99 -496h-200l244 1222h-159l28 141h159l40 197h200l-40 -197h172l-28 -141h-172l-114 -571h78l305 431h227l3 -5l-388 -481l220 -596h-233z" />
<glyph unicode="&#x4a0;" horiz-adv-x="1386" d="M779 654h-107l-130 -654h-201l260 1301h-373l31 155h574l-127 -632h116l433 632h260l-560 -724l284 -732h-230z" />
<glyph unicode="&#x4a1;" horiz-adv-x="1192" d="M687 457h-93l-91 -457h-201l185 927h-325l31 155h526l-91 -453h89l321 453h243l2 -5l-414 -500l229 -577h-261z" />
<glyph unicode="&#x4a2;" horiz-adv-x="1198" d="M974 0h-199l128 642h-521l-128 -642h-201l291 1456h201l-132 -659h521l132 659h199zM1038 -356h-201l102 513h201z" />
<glyph unicode="&#x4a3;" horiz-adv-x="971" d="M767 0h-201l92 462h-333l-92 -462h-201l216 1082h201l-93 -466h333l93 466h201zM831 -356h-201l102 513h201z" />
<glyph unicode="&#x4a4;" horiz-adv-x="1642" d="M413 797h521l132 659h707l-31 -155h-508l-260 -1301h-199l128 642h-521l-128 -642h-201l291 1456h201z" />
<glyph unicode="&#x4a5;" horiz-adv-x="1195" d="M350 616h333l93 466h484l-31 -155h-283l-185 -927h-201l92 462h-333l-92 -462h-201l216 1082h201z" />
<glyph unicode="&#x4a6;" horiz-adv-x="1737" d="M1141 834h111q213 0 319 -150.5t51 -426.5q-52 -259 -183 -405.5t-336 -141.5l-5 3l27 137q112 0 185.5 113t110.5 290q41 210 -9.5 315t-191.5 105h-111l-134 -673h-199l260 1300h-522l-260 -1300h-201l291 1456h922z" />
<glyph unicode="&#x4a7;" horiz-adv-x="1461" d="M891 645h102q192 0 297.5 -124t61.5 -348q-26 -133 -132 -269.5t-263 -180.5l-46 139q96 37 156.5 119t84.5 192q28 153 -23.5 232.5t-167.5 79.5h-102l-97 -485h-201l184 925h-334l-184 -925h-201l216 1082h736z" />
<glyph unicode="&#x4a8;" horiz-adv-x="1302" d="M1126 -24q-84 0 -158.5 18t-138.5 54q-68 -34 -141.5 -51.5t-150.5 -17.5q-219 0 -334 201t-56 492l39 194q56 279 195 443.5t312 158.5l6 -3l-31 -150q-80 0 -159.5 -130t-115.5 -317l-40 -196q-49 -248 8.5 -390.5t207.5 -142.5q29 0 59 5.5t59 17.5q-86 99 -117.5 236 t1.5 299l47 232q49 249 170.5 396t275.5 147q147 0 218.5 -158t23.5 -398l-47 -236q-34 -167 -104.5 -300t-171.5 -225q37 -13 80.5 -19t93.5 -6zM765 695q-30 -146 -12.5 -256.5t78.5 -175.5l5 -1q78 68 137 178t85 240l49 246q38 189 18 286.5t-91 91.5l-6 1 q-59 5 -121 -101.5t-95 -273.5z" />
<glyph unicode="&#x4a9;" horiz-adv-x="1062" d="M916 -16q-81 0 -148 13t-120 40q-53 -29 -108 -43.5t-108 -14.5q-196 0 -283.5 154t-34.5 417l15 77q40 201 160 336.5t246 129.5l6 -2l-30 -150q-52 -2 -98 -84.5t-75 -227.5l-16 -79q-36 -175 5 -293t137 -118q13 0 26.5 1.5t26.5 4.5q-54 73 -68.5 177t12.5 233 l24 119q36 184 138 306t215 122q125 0 174.5 -123.5t8.5 -332.5l-23 -116q-23 -111 -75.5 -209t-125.5 -172q31 -14 67.5 -20.5t78.5 -6.5zM799 534l24 120q24 121 15.5 203t-45.5 75l-6 1q-38 6 -74.5 -64t-60.5 -196l-25 -123q-19 -91 -6.5 -167.5t51.5 -124.5l6 -1 q39 43 70.5 114.5t50.5 162.5z" />
<glyph unicode="&#x4aa;" horiz-adv-x="1041" d="M1004 459l2 -6q-58 -227 -182 -350.5t-323 -123.5q-196 0 -309.5 180t-59.5 444l52 260q58 293 201 453.5t347 160.5q196 0 304 -135.5t80 -363.5h-199q18 164 -31.5 253.5t-173.5 89.5q-108 0 -197.5 -128t-129.5 -328l-52 -262q-44 -215 7.5 -342.5t177.5 -127.5 q109 0 177.5 79t116.5 247h192zM461 -439h-201l102 513h201z" />
<glyph unicode="&#x4ab;" horiz-adv-x="889" d="M426 133q68 0 127 58.5t75 156.5h179l2 -6q-23 -159 -140.5 -261t-266.5 -102q-186 0 -270.5 138.5t-51.5 347.5l24 149q35 219 158.5 353.5t318.5 134.5q152 0 235 -111t55 -288h-187q18 112 -17 177.5t-111 65.5q-104 0 -166.5 -95t-84.5 -237l-24 -149 q-24 -152 5.5 -242t139.5 -90zM394 -439h-201l102 513h201z" />
<glyph unicode="&#x4ac;" horiz-adv-x="979" d="M1117 1300h-353l-260 -1300h-200l260 1300h-351l31 156h904zM568 -356h-201l102 513h201z" />
<glyph unicode="&#x4ad;" horiz-adv-x="848" d="M905 927h-283l-185 -927h-202l185 927h-278l31 155h763zM500 -356h-201l102 513h201z" />
<glyph unicode="&#x4ae;" horiz-adv-x="1061" d="M594 762l6 -1l417 695h223l-594 -934l-104 -522h-199l108 539l-218 917h224z" />
<glyph unicode="&#x4af;" horiz-adv-x="863" d="M755 1082h207l-507 -1046l-90 -452h-199l91 456l-89 1042h208l22 -757l-1 -75l6 -1l30 76z" />
<glyph unicode="&#x4b0;" horiz-adv-x="1061" d="M594 762l6 -1l417 695h223l-499 -785h102l-28 -141h-164l-5 -8l-104 -522h-199l106 530h-165l28 141h107l-186 785h224z" />
<glyph unicode="&#x4b1;" horiz-adv-x="863" d="M619 -3h-171l-83 -413h-199l83 413h-161l28 141h133l-81 944h208l22 -757l-1 -75l6 -1l30 76l322 757h207l-457 -944h142z" />
<glyph unicode="&#x4b2;" horiz-adv-x="1073" d="M606 889l6 -1l332 568h236l-474 -721l256 -735h-240l-156 581h-6l-342 -581h-237l485 735l-243 721h234zM913 -356h-201l102 513h201z" />
<glyph unicode="&#x4b3;" horiz-adv-x="863" d="M465 688l6 -1l220 395h229l-357 -534l193 -548h-228l-98 407l-6 1l-228 -408h-228l368 548l-187 534h227zM717 -356h-201l102 513h201z" />
<glyph unicode="&#x4b4;" horiz-adv-x="1509" d="M511 1301h-288l31 155h773l-31 -155h-285l-229 -1147h520l260 1302h201l-260 -1300h141l-117 -507h-183l70 351h-863z" />
<glyph unicode="&#x4b5;" horiz-adv-x="1150" d="M338 928h-192l31 155h571l-31 -155h-178l-154 -774h334l185 928h201l-186 -928h121l-110 -475h-184l64 321h-657z" />
<glyph unicode="&#x4b6;" horiz-adv-x="1168" d="M1235 1456l-291 -1456h-201l122 611q-68 -22 -140 -34t-143 -12q-195 0 -289 110.5t-46 346.5l87 434h200l-87 -434q-36 -179 4 -240.5t162 -61.5q61 0 138 12t145 34l138 690h201zM1008 -356h-201l102 513h201z" />
<glyph unicode="&#x4b7;" horiz-adv-x="934" d="M730 0h-200l78 391q-40 -13 -80.5 -19t-78.5 -6q-169 0 -251 101t-40 309l61 306h200l-61 -306q-30 -148 0 -201.5t122 -53.5q40 0 79.5 7t79.5 20l107 534h200zM794 -356h-201l102 513h201z" />
<glyph unicode="&#x4b8;" horiz-adv-x="1151" d="M1222 1456l-291 -1456h-201l122 611q-68 -22 -140 -34l-10 -2l-50 -249h-132l48 239q-194 0 -288 110.5t-46 346.5l87 434h200l-87 -434q-36 -179 4 -240.5t161 -61.5l64 320h132l-62 -309l5 1q77 12 145 34l138 690h201z" />
<glyph unicode="&#x4b9;" horiz-adv-x="946" d="M747 0h-200l78 391q-40 -13 -81 -19l-15 -2l-30 -152h-131l30 152q-118 17 -183 97q-82 101 -40 309l61 306h200l-61 -306q-30 -148 0 -202q17 -31 55 -44l55 275h131l-56 -280l16 3q40 7 80 20l107 534h200z" />
<glyph unicode="&#x4ba;" horiz-adv-x="1168" d="M184 0l291 1456h201l-122 -611q67 21 138.5 33.5t144.5 12.5q194 0 288 -111t47 -346l-87 -434h-200l87 434q35 178 -5 240t-161 62q-61 0 -138 -13t-145 -34l-138 -689h-201z" />
<glyph unicode="&#x4bb;" d="M418 958l5 -4q52 71 121 109.5t146 38.5q130 0 190 -109.5t16 -330.5l-132 -662h-201l133 664q32 160 4.5 220t-109.5 60q-54 0 -107 -37t-96 -100l-161 -807h-201l312 1560h201z" />
<glyph unicode="&#x4bc;" horiz-adv-x="1292" d="M720 -23q-232 0 -340.5 172t-53.5 446l22 110q-115 23 -165.5 122t-18.5 252h144q-20 -97 -3.5 -155t71.5 -77l2 10q57 287 220 452.5t362 165.5q203 0 289.5 -179.5t26.5 -479.5l-24 -121h-706l-20 -100q-44 -219 7.5 -339t218.5 -120q84 0 163 27t137 66l11 -145 q-42 -39 -133 -73t-210 -34zM574 839h505l7 36q42 212 7.5 325.5t-165.5 113.5q-114 0 -212.5 -132.5t-137.5 -324.5z" />
<glyph unicode="&#x4bd;" horiz-adv-x="1010" d="M521 -21q-178 0 -271 135t-59 342l11 71q-92 30 -131 118t-12 218h138q-15 -70 -7 -117.5t38 -71.5q46 195 169 311.5t280 116.5q170 0 247.5 -127t44.5 -336l-22 -140h-550l-7 -43q-24 -146 18 -234.5t150 -88.5q77 0 140 27t122 77l43 -126q-58 -58 -146 -95t-196 -37z M652 946q-78 0 -141.5 -86t-90.5 -216h351l7 41q19 119 -11.5 190t-114.5 71z" />
<glyph unicode="&#x4be;" horiz-adv-x="1292" d="M720 -23q-232 0 -340.5 172t-53.5 446l22 110q-115 23 -165.5 122t-18.5 252h144q-20 -97 -3.5 -155t71.5 -77l2 10q57 287 220 452.5t362 165.5q203 0 289.5 -179.5t26.5 -479.5l-24 -121h-706l-20 -100q-44 -219 7.5 -339t218.5 -120q84 0 163 27t137 66l11 -145 q-42 -39 -133 -73t-210 -34zM574 839h505l7 36q42 212 7.5 325.5t-165.5 113.5q-114 0 -212.5 -132.5t-137.5 -324.5zM712 -443h-201l102 513h201z" />
<glyph unicode="&#x4bf;" horiz-adv-x="1010" d="M521 -21q-178 0 -271 135t-59 342l11 71q-92 30 -131 118t-12 218h138q-15 -70 -7 -117.5t38 -71.5q46 195 169 311.5t280 116.5q170 0 247.5 -127t44.5 -336l-22 -140h-550l-7 -43q-24 -146 18 -234.5t150 -88.5q77 0 140 27t122 77l43 -126q-58 -58 -146 -95t-196 -37z M652 946q-78 0 -141.5 -86t-90.5 -216h351l7 41q19 119 -11.5 190t-114.5 71zM517 -431h-201l102 513h201z" />
<glyph unicode="&#x4c0;" horiz-adv-x="502" d="M265 0h-200l291 1456h200z" />
<glyph unicode="&#x4c1;" horiz-adv-x="1604" d="M1082 661h-127l-132 -661h-200l132 661h-131l-428 -661h-250l544 784l-227 672h242l157 -632h125l127 632h200l-127 -632h124l406 632h242l-494 -671l228 -785h-249zM1351 1872l2 -6q-15 -122 -100 -194t-211 -72q-122 0 -185.5 75t-39.5 192l2 5h150 q-11 -69 10.5 -109.5t82.5 -40.5q56 0 91.5 42.5t46.5 107.5h151z" />
<glyph unicode="&#x4c2;" horiz-adv-x="1371" d="M892 462h-100l-92 -462h-200l92 462h-97l-294 -462h-254l419 590l-184 492h250l105 -447h89l90 447h200l-90 -447h94l283 447h248l-381 -493l185 -589h-255zM1186 1529l2 -6q-15 -122 -100 -194t-211 -72q-122 0 -185.5 75t-39.5 192l2 5h150q-11 -69 10.5 -109.5 t82.5 -40.5q56 0 91.5 42.5t46.5 107.5h151z" />
<glyph unicode="&#x4c3;" horiz-adv-x="1084" d="M246 0h-200l291 1456h200l-126 -628h93l478 628h236l2 -5l-531 -637q182 -24 267 -171.5t35 -401.5q-52 -258 -183 -405t-336 -142l-5 3l28 138q112 0 185.5 112.5t109.5 289.5q45 223 -5.5 322t-193.5 99h-214z" />
<glyph unicode="&#x4c4;" horiz-adv-x="951" d="M612 600q133 -38 195.5 -148.5t27.5 -289.5q-27 -136 -130.5 -264.5t-262.5 -171.5l-44 139q95 36 155 114t82 183q30 150 -13 218.5t-146 76.5h-144l-91 -457h-201l216 1082h201l-91 -453h70l341 453h242l2 -5z" />
<glyph unicode="&#x4c5;" horiz-adv-x="1194" d="M1261 1456l-291 -1456h-200l260 1300h-376l-102 -512q-89 -441 -212 -614.5t-326 -173.5h-49l31 154h32q112 2 182 139.5t142 494.5l133 668h776zM1136 -11l-184 -295h-119l117 302l37 183h187z" />
<glyph unicode="&#x4c6;" horiz-adv-x="973" d="M986 1082l-216 -1082h-201l184 925h-247l-62 -312q-69 -339 -168.5 -476t-282.5 -137h-42l32 162l31 1q77 0 127.5 100t101.5 350l93 469h650zM936 -11l-184 -295h-119l117 302l37 183h187z" />
<glyph unicode="&#x4c7;" horiz-adv-x="1199" d="M545 1456l-132 -659h521l132 659h200l-306 -1530q-38 -185 -130 -274t-230 -89q-27 0 -52 4.5t-49 13.5l41 151q14 -5 36.5 -9t40.5 -4q44 0 83.5 56t59.5 151l143 716h-521l-128 -642h-201l291 1456h201z" />
<glyph unicode="&#x4c8;" d="M444 1082l-93 -466h332l93 466h201l-231 -1156q-38 -185 -129.5 -274t-229.5 -89q-27 0 -52 4.5t-49 13.5l41 151q14 -5 36.5 -9t40.5 -4q45 0 83 55.5t58 151.5l107 536h-332l-92 -462h-201l216 1082h201z" />
<glyph unicode="&#x4c9;" horiz-adv-x="1198" d="M974 0h-199l128 642h-521l-128 -642h-201l291 1456h201l-132 -659h521l132 659h199zM1140 -11l-184 -295h-119l117 302l37 183h187z" />
<glyph unicode="&#x4ca;" horiz-adv-x="971" d="M767 0h-201l92 462h-333l-92 -462h-201l216 1082h201l-93 -466h333l93 466h201zM933 -11l-184 -295h-119l117 302l37 183h187z" />
<glyph unicode="&#x4cb;" horiz-adv-x="1168" d="M1235 1456l-291 -1456h-201l122 611q-68 -22 -140 -34t-143 -12q-195 0 -289 110.5t-46 346.5l87 434h200l-87 -434q-36 -179 4 -240.5t162 -61.5q61 0 138 12t145 34l138 690h201zM736 -356h-201l102 513h201z" />
<glyph unicode="&#x4cc;" horiz-adv-x="934" d="M730 0h-200l78 391q-40 -13 -80.5 -19t-78.5 -6q-169 0 -251 101t-40 309l61 306h200l-61 -306q-30 -148 0 -201.5t122 -53.5q40 0 79.5 7t79.5 20l107 534h200zM522 -356h-201l102 513h201z" />
<glyph unicode="&#x4cd;" horiz-adv-x="1423" d="M597 1456l79 -1186l6 -1l554 1187h259l-291 -1456h-199l112 559l126 541l-6 2l-546 -1102h-132l-105 1099h-6l-89 -540l-112 -559h-199l291 1456h258zM1369 -11l-184 -295h-119l117 302l37 183h187z" />
<glyph unicode="&#x4ce;" horiz-adv-x="1268" d="M593 250l6 -1l417 833h252l-216 -1082h-202l137 689l-6 2l-367 -691h-136l-92 695h-6l-138 -695h-200l216 1082h252zM1217 -11l-184 -295h-119l117 302l37 183h187z" />
<glyph unicode="&#x4cf;" horiz-adv-x="502" d="M265 0h-200l291 1456h200z" />
<glyph unicode="&#x4d0;" horiz-adv-x="1098" d="M757 368h-434l-174 -368h-203l717 1456h193l131 -1456h-203zM400 529h345l-44 620l-6 1zM1114 1872l2 -6q-15 -122 -100 -194t-211 -72q-122 0 -185.5 75t-39.5 192l2 5h150q-11 -69 10.5 -109.5t82.5 -40.5q56 0 91.5 42.5t46.5 107.5h151z" />
<glyph unicode="&#x4d1;" horiz-adv-x="922" d="M552 0q-2 40 -2 74t4 67q-57 -72 -129.5 -117t-149.5 -45q-122 0 -183.5 88t-32.5 230q33 165 148.5 248.5t301.5 83.5h140l22 111q20 105 -8.5 157.5t-105.5 52.5q-63 0 -116 -50.5t-67 -124.5l-191 1l-2 6q22 133 139.5 226.5t279.5 93.5q144 0 225 -96t47 -268 l-101 -502q-13 -66 -17 -122t1 -114h-203zM352 135q61 0 124.5 42t102.5 104l44 222h-142q-80 0 -142 -61t-78 -144q-16 -78 7 -120.5t84 -42.5zM936 1550l2 -6q-15 -122 -100 -194t-211 -72q-122 0 -185.5 75t-39.5 192l2 5h150q-11 -69 10.5 -109.5t82.5 -40.5 q56 0 91.5 42.5t46.5 107.5h151z" />
<glyph unicode="&#x4d2;" horiz-adv-x="1098" d="M757 368h-434l-174 -368h-203l717 1456h193l131 -1456h-203zM400 529h345l-44 620l-6 1zM1113 1617h-202l30 185h202zM703 1617h-202l30 185h202z" />
<glyph unicode="&#x4d3;" horiz-adv-x="922" d="M552 0q-2 40 -2 74t4 67q-57 -72 -129.5 -117t-149.5 -45q-122 0 -183.5 88t-32.5 230q33 165 148.5 248.5t301.5 83.5h140l22 111q20 105 -8.5 157.5t-105.5 52.5q-63 0 -116 -50.5t-67 -124.5l-191 1l-2 6q22 133 139.5 226.5t279.5 93.5q144 0 225 -96t47 -268 l-101 -502q-13 -66 -17 -122t1 -114h-203zM352 135q61 0 124.5 42t102.5 104l44 222h-142q-80 0 -142 -61t-78 -144q-16 -78 7 -120.5t84 -42.5zM935 1295h-202l30 185h202zM525 1295h-202l30 185h202z" />
<glyph unicode="&#x4d4;" horiz-adv-x="1576" d="M1439 0h-722l60 361h-389l-228 -361h-239l959 1456h801l-31 -157h-516l-78 -467h434l-31 -155h-429l-87 -522h527zM805 531l109 652l-5 2l-414 -654h310z" />
<glyph unicode="&#x4d5;" horiz-adv-x="1420" d="M933 -21q-100 0 -173.5 46.5t-112.5 131.5q-62 -76 -158.5 -127t-217.5 -51q-137 0 -204 89t-37 236q33 168 146.5 251t303.5 83h163l16 78q23 116 -1.5 173t-94.5 57q-69 0 -125.5 -55.5t-71.5 -133.5l-188 16l-1 6q25 149 138.5 236t279.5 87q80 0 142 -32t97 -93 q63 61 138 93t159 32q160 0 234.5 -131t32.5 -348l-25 -124h-552q-35 -174 1 -270t156 -96q74 0 136 27.5t129 75.5l32 -132q-53 -47 -143.5 -86t-198.5 -39zM340 127q50 0 117.5 40t110.5 91l48 243h-162q-82 0 -145 -59.5t-79 -141.5q-17 -85 9.5 -129t100.5 -44z M1100 946q-79 0 -144 -84.5t-100 -217.5l3 -5h344l6 30q26 131 1 204t-110 73z" />
<glyph unicode="&#x4d6;" horiz-adv-x="981" d="M900 676h-511l-104 -522h593l-31 -154h-794l291 1456h788l-31 -156h-587l-94 -469h511zM1053 1872l2 -6q-15 -122 -100 -194t-211 -72q-122 0 -185.5 75t-39.5 192l2 5h150q-11 -69 10.5 -109.5t82.5 -40.5q56 0 91.5 42.5t46.5 107.5h151z" />
<glyph unicode="&#x4d7;" horiz-adv-x="899" d="M417 -21q-178 0 -271 135t-59 342l25 158q35 220 163.5 354t297.5 134q170 0 247.5 -127t44.5 -336l-22 -140h-550l-7 -43q-24 -146 18 -234.5t150 -88.5q77 0 140 27t122 77l43 -126q-58 -58 -146 -95t-196 -37zM548 946q-78 0 -141.5 -86t-90.5 -216h351l7 41 q19 119 -11.5 190t-114.5 71zM901 1551l2 -6q-15 -122 -100 -194t-211 -72q-122 0 -185.5 75t-39.5 192l2 5h150q-11 -69 10.5 -109.5t82.5 -40.5q56 0 91.5 42.5t46.5 107.5h151z" />
<glyph unicode="&#x4d8;" horiz-adv-x="1168" d="M728 1477q244 0 360.5 -186t58.5 -478l-33 -165q-63 -312 -236 -490.5t-383 -178.5q-230 0 -331.5 178t-41.5 479l25 126h789l10 51q47 238 -10.5 370.5t-239.5 132.5q-89 0 -172.5 -27t-143.5 -66l-11 145q41 38 137 73.5t222 35.5zM527 138q119 0 225 137.5t154 342.5 h-587l-9 -41q-43 -212 5.5 -325.5t211.5 -113.5z" />
<glyph unicode="&#x4d9;" horiz-adv-x="901" d="M689 1103q178 0 271 -135t59 -342l-25 -158q-35 -220 -163.5 -354t-297.5 -134q-170 0 -247.5 127t-44.5 336l22 140h550l7 43q24 146 -18 234.5t-150 88.5q-77 0 -140 -27t-122 -77l-43 126q58 58 146 95t196 37zM558 136q78 0 141.5 86t90.5 216h-351l-7 -41 q-19 -119 11.5 -190t114.5 -71z" />
<glyph unicode="&#x4da;" horiz-adv-x="1168" d="M728 1477q244 0 360.5 -186t58.5 -478l-33 -165q-63 -312 -236 -490.5t-383 -178.5q-230 0 -331.5 178t-41.5 479l25 126h789l10 51q47 238 -10.5 370.5t-239.5 132.5q-89 0 -172.5 -27t-143.5 -66l-11 145q41 38 137 73.5t222 35.5zM527 138q119 0 225 137.5t154 342.5 h-587l-9 -41q-43 -212 5.5 -325.5t211.5 -113.5zM1066 1638h-202l30 185h202zM656 1638h-202l30 185h202z" />
<glyph unicode="&#x4db;" horiz-adv-x="901" d="M689 1103q178 0 271 -135t59 -342l-25 -158q-35 -220 -163.5 -354t-297.5 -134q-170 0 -247.5 127t-44.5 336l22 140h550l7 43q24 146 -18 234.5t-150 88.5q-77 0 -140 -27t-122 -77l-43 126q58 58 146 95t196 37zM558 136q78 0 141.5 86t90.5 216h-351l-7 -41 q-19 -119 11.5 -190t114.5 -71zM949 1295h-202l30 185h202zM539 1295h-202l30 185h202z" />
<glyph unicode="&#x4dc;" horiz-adv-x="1604" d="M1082 661h-127l-132 -661h-200l132 661h-131l-428 -661h-250l544 784l-227 672h242l157 -632h125l127 632h200l-127 -632h124l406 632h242l-494 -671l228 -785h-249zM1350 1617h-202l30 185h202zM940 1617h-202l30 185h202z" />
<glyph unicode="&#x4dd;" horiz-adv-x="1371" d="M892 462h-100l-92 -462h-200l92 462h-97l-294 -462h-254l419 590l-184 492h250l105 -447h89l90 447h200l-90 -447h94l283 447h248l-381 -493l185 -589h-255zM1185 1274h-202l30 185h202zM775 1274h-202l30 185h202z" />
<glyph unicode="&#x4de;" horiz-adv-x="1025" d="M451 819h138q100 0 168.5 67t91.5 181q24 119 -18.5 186.5t-154.5 67.5q-83 0 -160 -71t-98 -179h-192l-2 6q34 190 170.5 295t312.5 105q184 0 283 -109t60 -303q-23 -111 -91 -195t-168 -128q90 -43 129 -130t15 -210q-42 -212 -183.5 -317.5t-343.5 -105.5 q-163 0 -272 108.5t-64 311.5l3 5h194q-25 -124 22 -197.5t148 -73.5q106 0 188.5 74.5t106.5 192.5q28 145 -15.5 205t-160.5 60h-138l7 36l16 79zM1058 1638h-202l30 185h202zM648 1638h-202l30 185h202z" />
<glyph unicode="&#x4df;" horiz-adv-x="870" d="M481 624q67 0 109 42t58 117q15 77 -8.5 122t-97.5 45q-61 0 -115 -48t-68 -121h-191l-2 6q25 149 137.5 231t261.5 82q152 0 233 -82.5t52 -228.5q-17 -81 -66 -142t-122 -94q67 -34 95.5 -98t10.5 -153q-32 -160 -146 -240.5t-281 -80.5q-136 0 -227.5 86t-55.5 244 l2 5h192q-17 -84 16 -135.5t110 -51.5q71 0 123 50.5t67 127.5q19 95 -9 133.5t-107 38.5h-137l29 145h137zM917 1295h-202l30 185h202zM507 1295h-202l30 185h202z" />
<glyph unicode="&#x4e0;" horiz-adv-x="984" d="M1071 1456l-24 -128l-426 -481q159 -20 234 -136.5t37 -308.5q-42 -212 -176 -317.5t-323 -105.5q-153 0 -253 109t-58 316h202q-25 -124 13 -197.5t127 -73.5q93 0 168.5 74.5t99.5 192.5q34 172 -11 241.5t-168 69.5h-113l8 41l20 100l375 443l-2 5h-496l31 156h735z " />
<glyph unicode="&#x4e1;" horiz-adv-x="984" d="M352 477l367 443l-3 5h-489l31 157h738l-24 -129l-419 -482q155 -22 228.5 -138t35.5 -306q-42 -209 -176 -315.5t-323 -106.5q-152 0 -251.5 110t-59.5 314h202q-25 -121 13 -194.5t127 -73.5q93 0 168.5 74.5t99.5 189.5q34 173 -11 242t-169 69h-113l27 136z" />
<glyph unicode="&#x4e2;" horiz-adv-x="1193" d="M1060 1456h201l-291 -1456h-201l209 1045l-5 3l-723 -1048h-201l291 1456h201l-209 -1046l5 -3zM1148 1652h-610l21 132h610z" />
<glyph unicode="&#x4e3;" horiz-adv-x="971" d="M784 1082h200l-216 -1082h-200l143 718l-6 2l-472 -720h-201l216 1082h201l-144 -719l6 -2zM969 1311h-610l21 132h610z" />
<glyph unicode="&#x4e4;" horiz-adv-x="1193" d="M1060 1456h201l-291 -1456h-201l209 1045l-5 3l-723 -1048h-201l291 1456h201l-209 -1046l5 -3zM1140 1617h-202l30 185h202zM730 1617h-202l30 185h202z" />
<glyph unicode="&#x4e5;" horiz-adv-x="971" d="M784 1082h200l-216 -1082h-200l143 718l-6 2l-472 -720h-201l216 1082h201l-144 -719l6 -2zM961 1274h-202l30 185h202zM551 1274h-202l30 185h202z" />
<glyph unicode="&#x4e6;" horiz-adv-x="1115" d="M1091 596q-59 -293 -213 -455t-372 -162q-201 0 -314.5 181.5t-60.5 446.5l51 252q58 293 207 455.5t363 162.5q205 0 323 -183t66 -447zM942 849q42 214 -20.5 341t-201.5 127q-117 0 -207 -125.5t-131 -330.5l-51 -254q-43 -217 15 -343.5t191 -126.5q122 0 217 126 t137 333zM1106 1638h-202l30 185h202zM696 1638h-202l30 185h202z" />
<glyph unicode="&#x4e7;" d="M105 609q35 224 163 358.5t318 134.5q179 0 268 -140t55 -353l-22 -138q-36 -225 -163.5 -358.5t-315.5 -133.5q-181 0 -270.5 139t-54.5 353zM283 471q-25 -154 10 -246t139 -92q96 0 163 96t91 242l22 138q24 151 -10.5 244t-136.5 93q-99 0 -166 -96t-90 -241z M923 1295h-202l30 185h202zM513 1295h-202l30 185h202z" />
<glyph unicode="&#x4e8;" horiz-adv-x="1157" d="M1046 527q-56 -276 -208.5 -412t-371.5 -136q-198 0 -301 147t-52 401l80 400q55 275 205.5 412.5t366.5 137.5q200 0 305.5 -148.5t55.5 -401.5zM364 794h535l28 136q40 202 -10.5 294.5t-183.5 92.5q-119 0 -211.5 -100.5t-129.5 -286.5zM871 654h-535l-25 -127 q-41 -205 7.5 -297.5t178.5 -92.5q122 0 216.5 100.5t132.5 289.5z" />
<glyph unicode="&#x4e9;" horiz-adv-x="962" d="M104 609q35 224 163 358.5t318 134.5q179 0 268 -140t55 -353l-22 -138q-36 -225 -163.5 -358.5t-315.5 -133.5q-181 0 -270.5 139t-54.5 353zM431 133q96 0 163 96t91 242v1h-403v-1q-25 -154 10 -246t139 -92zM560 946q-98 0 -165 -95t-91 -238h403q23 150 -11.5 241.5 t-135.5 91.5z" />
<glyph unicode="&#x4ea;" horiz-adv-x="1157" d="M1046 527q-56 -276 -208.5 -412t-371.5 -136q-198 0 -301 147t-52 401l80 400q55 275 205.5 412.5t366.5 137.5q200 0 305.5 -148.5t55.5 -401.5zM364 794h535l28 136q40 202 -10.5 294.5t-183.5 92.5q-119 0 -211.5 -100.5t-129.5 -286.5zM871 654h-535l-25 -127 q-41 -205 7.5 -297.5t178.5 -92.5q122 0 216.5 100.5t132.5 289.5zM1140 1638h-202l30 185h202zM730 1638h-202l30 185h202z" />
<glyph unicode="&#x4eb;" horiz-adv-x="962" d="M104 609q35 224 163 358.5t318 134.5q179 0 268 -140t55 -353l-22 -138q-36 -225 -163.5 -358.5t-315.5 -133.5q-181 0 -270.5 139t-54.5 353zM431 133q96 0 163 96t91 242v1h-403v-1q-25 -154 10 -246t139 -92zM560 946q-98 0 -165 -95t-91 -238h403q23 150 -11.5 241.5 t-135.5 91.5zM950 1295h-202l30 185h202zM540 1295h-202l30 185h202z" />
<glyph unicode="&#x4ec;" horiz-adv-x="1099" d="M237 989l-2 6q42 231 184 357t348 126q188 0 283 -176.5t42 -443.5l-52 -260q-59 -291 -213 -454.5t-360 -163.5q-192 0 -291 130t-53 356h201q-35 -171 9 -251.5t165 -80.5q109 0 204.5 131t135.5 331l15 77h-417l30 154h418l7 31q43 218 3.5 341t-159.5 123 q-111 0 -193 -87t-113 -246h-192zM1097 1638h-202l30 185h202zM687 1638h-202l30 185h202z" />
<glyph unicode="&#x4ed;" horiz-adv-x="897" d="M529 946q-65 0 -124 -59t-78 -155h-181l-3 6q29 162 149.5 263t267.5 101q172 0 251.5 -157.5t34.5 -385.5l-8 -38q-50 -249 -182 -395.5t-319 -146.5q-145 0 -225.5 111t-45.5 287h190q-23 -117 7 -180.5t105 -63.5q85 0 154 99t106 246h-271l27 139h272 q23 151 -5.5 240t-121.5 89zM927 1295h-202l30 185h202zM517 1295h-202l30 185h202z" />
<glyph unicode="&#x4ee;" horiz-adv-x="1066" d="M575 737l12 -95l6 -1l409 815h220l-644 -1202q-82 -134 -158 -204.5t-200 -70.5q-19 0 -45.5 3t-35.5 6l31 150q7 -3 31 -4t38 -1q55 0 96.5 44t79.5 122l41 77l-189 1080h218zM1085 1652h-610l21 132h610z" />
<glyph unicode="&#x4ef;" horiz-adv-x="863" d="M397 373l1 -60l6 -1l346 770h218l-610 -1250q-57 -111 -135.5 -190t-195.5 -79q-23 0 -50.5 5.5t-53.5 12.5l52 150q11 -2 28.5 -4t27.5 -2q51 0 96.5 52.5t75.5 117.5l55 108l-102 1079h218zM913 1311h-610l21 132h610z" />
<glyph unicode="&#x4f0;" horiz-adv-x="1066" d="M575 737l12 -95l6 -1l409 815h220l-644 -1202q-82 -134 -158 -204.5t-200 -70.5q-19 0 -45.5 3t-35.5 6l31 150q7 -3 31 -4t38 -1q55 0 96.5 44t79.5 122l41 77l-189 1080h218zM1077 1617h-202l30 185h202zM667 1617h-202l30 185h202z" />
<glyph unicode="&#x4f1;" horiz-adv-x="863" d="M397 373l1 -60l6 -1l346 770h218l-610 -1250q-57 -111 -135.5 -190t-195.5 -79q-23 0 -50.5 5.5t-53.5 12.5l52 150q11 -2 28.5 -4t27.5 -2q51 0 96.5 52.5t75.5 117.5l55 108l-102 1079h218zM905 1274h-202l30 185h202zM495 1274h-202l30 185h202z" />
<glyph unicode="&#x4f2;" horiz-adv-x="1066" d="M575 737l12 -95l6 -1l409 815h220l-644 -1202q-82 -134 -158 -204.5t-200 -70.5q-19 0 -45.5 3t-35.5 6l31 150q7 -3 31 -4t38 -1q55 0 96.5 44t79.5 122l41 77l-189 1080h218zM1042 1867h206l2 -6l-288 -260h-163l-3 6zM753 1867h196l3 -6l-247 -260h-161z" />
<glyph unicode="&#x4f3;" horiz-adv-x="863" d="M397 373l1 -60l6 -1l346 770h218l-610 -1250q-57 -111 -135.5 -190t-195.5 -79q-23 0 -50.5 5.5t-53.5 12.5l52 150q11 -2 28.5 -4t27.5 -2q51 0 96.5 52.5t75.5 117.5l55 108l-102 1079h218zM870 1524h206l2 -6l-288 -260h-163l-3 6zM581 1524h196l3 -6l-247 -260h-161z " />
<glyph unicode="&#x4f4;" horiz-adv-x="1168" d="M1235 1456l-291 -1456h-201l122 611q-68 -22 -140 -34t-143 -12q-195 0 -289 110.5t-46 346.5l87 434h200l-87 -434q-36 -179 4 -240.5t162 -61.5q61 0 138 12t145 34l138 690h201zM1141 1617h-202l30 185h202zM731 1617h-202l30 185h202z" />
<glyph unicode="&#x4f5;" horiz-adv-x="934" d="M730 0h-200l78 391q-40 -13 -80.5 -19t-78.5 -6q-169 0 -251 101t-40 309l61 306h200l-61 -306q-30 -148 0 -201.5t122 -53.5q40 0 79.5 7t79.5 20l107 534h200zM925 1274h-202l30 185h202zM515 1274h-202l30 185h202z" />
<glyph unicode="&#x4f6;" horiz-adv-x="945" d="M1058 1300h-544l-260 -1300h-201l291 1456h745zM318 -356h-201l102 513h201z" />
<glyph unicode="&#x4f7;" horiz-adv-x="718" d="M793 925h-376l-185 -925h-200l216 1082h576zM265 -356h-201l102 513h201z" />
<glyph unicode="&#x4f8;" horiz-adv-x="1464" d="M426 862h241q184 0 279 -118.5t58 -308.5q-42 -209 -175.5 -322t-333.5 -113h-441l291 1456h200zM395 707l-110 -553h241q101 0 177 82t100 201q25 124 -15.5 197t-151.5 73h-241zM1238 0h-200l291 1456h200zM1276 1617h-202l30 185h202zM866 1617h-202l30 185h202z" />
<glyph unicode="&#x4f9;" horiz-adv-x="1360" d="M385 717h188q155 0 234 -101t49 -256q-34 -169 -146 -264.5t-280 -95.5h-388l216 1082h200zM354 561l-81 -407h188q72 0 124 58.5t69 143.5q18 91 -8 148t-104 57h-188zM1130 0h-201l216 1082h201zM1148 1274h-202l30 185h202zM738 1274h-202l30 185h202z" />
<glyph unicode="&#x4fa;" horiz-adv-x="1013" d="M1124 1300h-544l-260 -1300h-201l291 1456h745zM650 716h-531l28 141h531zM539 174l-50 -248q-38 -185 -129 -274t-229 -89q-26 0 -49.5 4.5t-49.5 13.5l43 157q14 -5 36 -9.5t39 -4.5q45 0 82 53t57 149l50 248h200z" />
<glyph unicode="&#x4fb;" horiz-adv-x="714" d="M860 925h-376l-185 -925h-200l216 1082h576zM605 534h-531l28 141h531zM501 174l-50 -248q-38 -185 -129 -274t-229 -89q-26 0 -49.5 4.5t-49.5 13.5l43 157q14 -5 36 -9.5t39 -4.5q45 0 82 53t57 149l50 248h200z" />
<glyph unicode="&#x4fc;" horiz-adv-x="1073" d="M606 889l6 -1l332 568h236l-474 -721l256 -735h-240l-156 581h-6l-342 -581h-237l485 735l-243 721h234zM1083 174l-50 -248q-38 -185 -129 -274t-229 -89q-26 0 -49.5 4.5t-49.5 13.5l43 157q14 -5 36 -9.5t39 -4.5q45 0 82 53t57 149l50 248h200z" />
<glyph unicode="&#x4fd;" horiz-adv-x="863" d="M465 688l6 -1l220 395h229l-357 -534l193 -548h-228l-98 407l-6 1l-228 -408h-228l368 548l-187 534h227zM887 174l-50 -248q-38 -185 -129 -274t-229 -89q-26 0 -49.5 4.5t-49.5 13.5l43 157q14 -5 36 -9.5t39 -4.5q45 0 82 53t57 149l50 248h200z" />
<glyph unicode="&#x4fe;" horiz-adv-x="1073" d="M845 674h-118l235 -674h-240l-156 581h-6l-342 -581h-237l444 674h-111l28 141h97l-216 641h234l149 -567l6 -1l332 568h236l-422 -641h115z" />
<glyph unicode="&#x4ff;" horiz-adv-x="863" d="M699 484h-114l171 -484h-228l-98 407l-6 1l-228 -408h-228l325 484h-125l28 141h113l-160 457h227l89 -394l6 -1l220 395h229l-306 -457h113z" />
<glyph unicode="&#x500;" horiz-adv-x="1062" d="M833 884l114 572h201l-291 -1456h-442q-183 0 -277 126t-55 319q41 208 175 323.5t334 115.5h241zM687 154l115 575h-241q-102 0 -178 -83t-99 -199q-26 -132 12.5 -212.5t149.5 -80.5h241z" />
<glyph unicode="&#x501;" d="M103 548q55 277 163 415.5t273 138.5q67 0 122 -32.5t91 -92.5l117 583h200l-312 -1560h-175l8 96q-52 -58 -114 -87.5t-132 -29.5q-150 0 -221.5 157t-24.5 391zM299 527q-37 -181 -8 -286t129 -105q55 0 104 39t89 107l106 530q-17 61 -55.5 96.5t-98.5 35.5 q-92 0 -158.5 -107.5t-102.5 -288.5z" />
<glyph unicode="&#x502;" horiz-adv-x="1461" d="M432 0q-183 0 -277.5 126t-55.5 319q41 208 175.5 323.5t334.5 115.5h241l114 572h201l-261 -1303h61q79 1 136 70t84 191q17 79 21.5 164.5t-3.5 166.5h195q6 -105 5 -181.5t-17 -149.5q-43 -200 -171 -307t-281 -107h-502zM704 154l115 575h-241q-102 0 -178.5 -83.5 t-99.5 -198.5q-26 -131 13 -212t150 -81h241z" />
<glyph unicode="&#x503;" horiz-adv-x="1442" d="M109 528q54 276 172 425t283 149q63 0 110.5 -31t77.5 -88l115 577h201l-241 -1207q-23 -102 -4 -160.5t73 -58.5q91 1 163 105.5t113 289.5q20 99 27.5 200t3.5 202l195 1q1 -128 -3 -220t-23 -183q-56 -266 -198 -408t-309 -142q-101 -2 -162 39t-80 130 q-58 -82 -129 -125.5t-155 -43.5q-150 0 -216 147t-19 381zM721 830q-17 53 -51 83.5t-85 30.5q-93 0 -166 -117.5t-109 -298.5l-5 -21q-37 -181 -11 -276t127 -95q55 0 104.5 33.5t90.5 94.5q0 19 2.5 40t7.5 49z" />
<glyph unicode="&#x504;" horiz-adv-x="1331" d="M533 310l14 68q25 125 -10 193.5t-120 68.5h-174l31 156h128q116 0 187.5 65.5t97.5 195.5q25 122 -14.5 182t-153.5 60h-283l31 157h283q189 0 282 -105t55 -296q-26 -128 -96.5 -212.5t-184.5 -128.5q98 -37 132.5 -124.5t10.5 -209.5l-14 -72q-17 -78 -3 -125.5 t55 -41.5l6 -1q79 -3 147 105t107 284q20 99 27.5 200.5t2.5 202.5h196q1 -136 -3.5 -224.5t-23.5 -178.5q-54 -259 -194.5 -404.5t-300.5 -145.5q-133 -3 -190 76.5t-28 252.5v2z" />
<glyph unicode="&#x505;" horiz-adv-x="1089" d="M595 226q-12 -53 -4 -81.5t42 -28.5q69 2 123.5 81.5t86.5 221.5q16 76 19.5 158t-5.5 161h195q7 -101 7 -174.5t-16 -144.5q-46 -215 -167 -329.5t-264 -114.5q-132 -3 -185.5 53t-35.5 186l15 77q15 75 -8.5 112t-83.5 37h-190l29 151h147q73 0 121.5 43t63.5 116 q17 85 -10.5 131.5t-106.5 46.5h-212l25 154h217q158 0 239.5 -86t52.5 -232q-18 -87 -66 -143.5t-128 -91.5q75 -27 102.5 -87.5t10.5 -145.5l-14 -71v1z" />
<glyph unicode="&#x506;" horiz-adv-x="958" d="M787 10l-184 -295h-119l110 285h-105q-25 35 -21.5 101.5t18.5 139.5l25 123q25 130 -11 197t-128 67h-198l29 154h167q106 0 177.5 68.5t96.5 188.5q26 132 -12.5 197t-148.5 65h-234l28 155h237q185 0 277 -109t53 -305q-25 -123 -91 -206.5t-172 -128.5 q92 -38 123.5 -127t7.5 -214l-25 -127q-5 -20 -8 -39h146z" />
<glyph unicode="&#x507;" horiz-adv-x="910" d="M765 3l-184 -295h-119l113 292h-114q-17 22 -13 69.5t14 99.5l18 89q17 90 -13 134t-107 44h-202l29 145h188q76 0 127.5 44.5t67.5 123.5q17 88 -13 134t-112 46h-234l27 153h237q160 0 244.5 -87t54.5 -237q-19 -89 -69 -149t-132 -95q73 -32 98.5 -98t8.5 -157 l-13 -66h136z" />
<glyph unicode="&#x508;" horiz-adv-x="1623" d="M1020 1299h-340l-105 -531q-85 -422 -209 -595t-342 -173h-43l31 155h34q102 0 183 146.5t145 466.5l137 688h742l-220 -1103q-23 -110 -4.5 -164.5t74.5 -54.5q91 1 163 106t112 289q20 99 28 200t3 202l196 1q1 -124 -3.5 -217.5t-22.5 -185.5q-56 -266 -198 -408 t-309 -142q-148 -3 -210 87t-30 287z" />
<glyph unicode="&#x509;" horiz-adv-x="1395" d="M747 924h-203l-60 -302q-68 -338 -170.5 -480t-283.5 -142h-53l36 166l35 1q73 0 131 109.5t105 345.5l92 460h604l-145 -729q-22 -102 -2 -160.5t77 -58.5q73 1 130.5 91.5t92.5 250.5q19 91 25.5 187t1.5 194l196 1q3 -125 -0.5 -211t-21.5 -171 q-51 -240 -178.5 -368.5t-276.5 -128.5q-150 -3 -213.5 87.5t-31.5 286.5z" />
<glyph unicode="&#x50a;" horiz-adv-x="1673" d="M1257 1456l-220 -1103q-22 -102 -3 -160.5t72 -58.5q93 1 164.5 105.5t112.5 289.5q20 97 27.5 198t3.5 204l195 1q2 -132 -2.5 -222t-23.5 -181q-57 -266 -199 -408t-309 -142q-147 -3 -209 87.5t-30 286.5l57 288h-516l-128 -641h-200l291 1456h200l-132 -660h516 l132 660h201z" />
<glyph unicode="&#x50b;" horiz-adv-x="1391" d="M655 462h-341l-92 -462h-202l216 1082h202l-93 -465h341l93 465h201l-145 -729q-23 -102 -2.5 -160.5t77.5 -58.5q73 1 130.5 91.5t93.5 250.5q19 91 25.5 187t1.5 194l195 1q3 -125 -0.5 -211t-21.5 -171q-52 -240 -179 -368.5t-276 -128.5q-150 -3 -213.5 87.5 t-31.5 286.5z" />
<glyph unicode="&#x50c;" horiz-adv-x="1061" d="M487 -21q-202 0 -309 177.5t-55 440.5l53 262q57 285 223.5 451.5t386.5 166.5q84 0 155 -22t119 -62l-80 -141q-47 33 -102 50.5t-123 17.5q-122 0 -231 -134.5t-147 -324.5l-53 -264q-42 -210 9.5 -336.5t184.5 -126.5q100 1 170 79t100 216q17 82 24 171.5t7 185.5 h195q-5 -194 -7 -237.5t-18 -119.5q-47 -218 -187.5 -334t-314.5 -116z" />
<glyph unicode="&#x50d;" horiz-adv-x="889" d="M441 134q65 1 100.5 45.5t54.5 129.5q11 61 19 117.5t11 110.5h195q-3 -72 -8 -125t-15 -103q-36 -163 -141 -246.5t-247 -83.5q-182 0 -269 159.5t-42 381.5l8 42q48 240 184.5 390t325.5 150q71 0 128 -17.5t87 -47.5l-66 -148q-32 27 -78 41.5t-102 14.5 q-93 0 -171 -117t-108 -266l-8 -42q-34 -167 -1.5 -276.5t143.5 -109.5z" />
<glyph unicode="&#x50e;" horiz-adv-x="1194" d="M578 1299h-363l31 157h929l-31 -157h-366l-188 -946q-23 -110 -4.5 -164.5t73.5 -54.5q93 1 165 106t111 289q20 98 28 199t4 203l194 1q3 -119 -1.5 -214.5t-24.5 -188.5q-56 -266 -198 -408t-309 -142q-147 -3 -209 87.5t-29 286.5z" />
<glyph unicode="&#x50f;" horiz-adv-x="1081" d="M426 927h-259l31 155h731l-31 -155h-271l-114 -574q-22 -102 -1.5 -160.5t76.5 -58.5q73 1 129 79t86 216q17 78 21 162t-5 165h195q7 -107 6 -180.5t-16 -146.5q-48 -218 -172.5 -334t-274.5 -116q-150 -3 -213.5 87.5t-31.5 286.5z" />
<glyph unicode="&#x510;" horiz-adv-x="1125" d="M113 402q27 137 103 223.5t197 124.5q-87 49 -127.5 132.5t-20.5 182.5q41 211 181 311.5t357 100.5q171 0 279.5 -112.5t69.5 -288.5l-2 -5h-194q23 117 -30 183.5t-154 66.5q-119 0 -202.5 -72.5t-105.5 -181.5q-25 -124 21.5 -186t173.5 -62h155l-8 -39l-16 -79 l-7 -36h-155q-123 0 -205.5 -65.5t-108.5 -199.5q-26 -128 32 -197.5t189 -69.5q103 0 191.5 78.5t112.5 192.5h192l2 -6q-41 -220 -190 -319.5t-339 -99.5q-200 0 -315 114t-76 309z" />
<glyph unicode="&#x511;" horiz-adv-x="931" d="M643 519l-7 -38h-158q-81 0 -137 -43.5t-74 -130.5q-17 -82 20.5 -130t124.5 -48q76 0 139 55t79 132h192l1 -6q-30 -171 -153.5 -250t-280.5 -79q-161 0 -257 87t-67 234q20 100 77 163.5t148 93.5q-65 36 -95.5 97t-15.5 133q31 158 145 234.5t289 76.5q142 0 233 -88 t59 -225l-3 -6h-193q16 79 -22 124t-111 45q-77 0 -131 -49t-67 -118q-17 -80 14.5 -120.5t113.5 -40.5h158l-8 -38h1l-6 -28l-7 -37h-1z" />
<glyph unicode="&#x512;" horiz-adv-x="1194" d="M1261 1456l-291 -1456h-200l260 1300h-376l-102 -512q-89 -441 -212 -614.5t-326 -173.5h-49l31 154h32q112 2 182 139.5t142 494.5l133 668h776zM1204 174l-50 -248q-38 -185 -129 -274t-229 -89q-26 0 -49.5 4.5t-49.5 13.5l43 157q14 -5 36 -9.5t39 -4.5q45 0 82 53 t57 149l50 248h200z" />
<glyph unicode="&#x513;" horiz-adv-x="973" d="M986 1082l-216 -1082h-201l184 925h-247l-62 -312q-69 -339 -168.5 -476t-282.5 -137h-42l32 162l31 1q77 0 127.5 100t101.5 350l93 469h650zM1004 174l-50 -248q-38 -185 -129 -274t-229 -89q-26 0 -49.5 4.5t-49.5 13.5l43 157q14 -5 36 -9.5t39 -4.5q45 0 82 53 t57 149l50 248h200z" />
<glyph unicode="&#x1e00;" horiz-adv-x="1098" d="M757 368h-434l-174 -368h-203l717 1456h193l131 -1456h-203zM400 529h345l-44 620l-6 1zM290 -227q13 67 61 107.5t107 40.5q53 0 85.5 -43t20.5 -105q-14 -67 -60 -105.5t-104 -38.5q-55 0 -89 41.5t-21 102.5zM372 -227q-6 -29 6.5 -47t36.5 -18q21 0 40.5 19t25.5 46 q6 31 -5 49.5t-34 18.5q-22 0 -43.5 -19.5t-26.5 -48.5z" />
<glyph unicode="&#x1e01;" horiz-adv-x="922" d="M552 0q-2 40 -2 74t4 67q-57 -72 -129.5 -117t-149.5 -45q-122 0 -183.5 88t-32.5 230q33 165 148.5 248.5t301.5 83.5h140l22 111q20 105 -8.5 157.5t-105.5 52.5q-63 0 -116 -50.5t-67 -124.5l-191 1l-2 6q22 133 139.5 226.5t279.5 93.5q144 0 225 -96t47 -268 l-101 -502q-13 -66 -17 -122t1 -114h-203zM352 135q61 0 124.5 42t102.5 104l44 222h-142q-80 0 -142 -61t-78 -144q-16 -78 7 -120.5t84 -42.5zM134 -223q13 67 61 107.5t107 40.5q53 0 85.5 -43t20.5 -105q-14 -67 -60 -105.5t-104 -38.5q-55 0 -89 41.5t-21 102.5z M216 -223q-6 -29 6.5 -47t36.5 -18q21 0 40.5 19t25.5 46q6 31 -5 49.5t-34 18.5q-22 0 -43.5 -19.5t-26.5 -48.5z" />
<glyph unicode="&#x1e3e;" horiz-adv-x="1423" d="M597 1456l79 -1186l6 -1l554 1187h259l-291 -1456h-199l112 559l126 541l-6 2l-546 -1102h-132l-105 1099h-6l-89 -540l-112 -559h-199l291 1456h258zM1044 1824h221l2 -6l-269 -260h-159z" />
<glyph unicode="&#x1e3f;" horiz-adv-x="1462" d="M412 946q56 76 128.5 116t159.5 40q77 0 128.5 -49t65.5 -146q58 93 135 144t170 51q123 0 179.5 -115.5t11.5 -343.5l-129 -643h-201l129 644q35 178 11.5 239t-101.5 61q-59 0 -113.5 -54.5t-93.5 -141.5q-4 -28 -6 -41.5t-5 -28.5l-136 -678h-200l129 644 q34 172 9.5 236t-100.5 64q-56 0 -105 -38t-89 -104l-160 -802h-199l216 1082h183zM1017 1502h221l2 -6l-269 -260h-159z" />
<glyph unicode="&#x1e80;" horiz-adv-x="1487" d="M1052 432h6l346 1024h196l-511 -1456h-185l-67 1020l-6 1l-396 -1021h-184l-44 1456h196l20 -1023l6 -1l394 1024h159zM1018 1561h-166l-182 266h230z" />
<glyph unicode="&#x1e81;" horiz-adv-x="1256" d="M867 363l6 -1l276 720h192l-452 -1082h-164l-39 708l-6 2l-321 -710h-166l-19 1082h191l-7 -711l6 -2l321 713h144zM884 1218h-166l-182 266h230z" />
<glyph unicode="&#x1e82;" horiz-adv-x="1487" d="M1052 432h6l346 1024h196l-511 -1456h-185l-67 1020l-6 1l-396 -1021h-184l-44 1456h196l20 -1023l6 -1l394 1024h159zM1025 1824h221l2 -6l-269 -260h-159z" />
<glyph unicode="&#x1e83;" horiz-adv-x="1256" d="M867 363l6 -1l276 720h192l-452 -1082h-164l-39 708l-6 2l-321 -710h-166l-19 1082h191l-7 -711l6 -2l321 713h144zM891 1481h221l2 -6l-269 -260h-159z" />
<glyph unicode="&#x1e84;" horiz-adv-x="1487" d="M1052 432h6l346 1024h196l-511 -1456h-185l-67 1020l-6 1l-396 -1021h-184l-44 1456h196l20 -1023l6 -1l394 1024h159zM1235 1617h-202l30 185h202zM825 1617h-202l30 185h202z" />
<glyph unicode="&#x1e85;" horiz-adv-x="1256" d="M867 363l6 -1l276 720h192l-452 -1082h-164l-39 708l-6 2l-321 -710h-166l-19 1082h191l-7 -711l6 -2l321 713h144zM1101 1274h-202l30 185h202zM691 1274h-202l30 185h202z" />
<glyph unicode="&#x1ea0;" horiz-adv-x="1098" d="M757 368h-434l-174 -368h-203l717 1456h193l131 -1456h-203zM400 529h345l-44 620l-6 1zM525 -333h-223l40 200h223z" />
<glyph unicode="&#x1ea1;" horiz-adv-x="922" d="M552 0q-2 40 -2 74t4 67q-57 -72 -129.5 -117t-149.5 -45q-122 0 -183.5 88t-32.5 230q33 165 148.5 248.5t301.5 83.5h140l22 111q20 105 -8.5 157.5t-105.5 52.5q-63 0 -116 -50.5t-67 -124.5l-191 1l-2 6q22 133 139.5 226.5t279.5 93.5q144 0 225 -96t47 -268 l-101 -502q-13 -66 -17 -122t1 -114h-203zM352 135q61 0 124.5 42t102.5 104l44 222h-142q-80 0 -142 -61t-78 -144q-16 -78 7 -120.5t84 -42.5zM369 -329h-223l40 200h223z" />
<glyph unicode="&#x1ea2;" horiz-adv-x="1098" d="M757 368h-434l-174 -368h-203l717 1456h193l131 -1456h-203zM400 529h345l-44 620l-6 1zM727 1583l20 137q65 5 93 21t35 58q9 42 -21 62t-83 20l26 103q139 0 200 -46.5t42 -137.5q-13 -69 -55 -106.5t-96 -45.5l-13 -65h-148z" />
<glyph unicode="&#x1ea3;" horiz-adv-x="922" d="M552 0q-2 40 -2 74t4 67q-57 -72 -129.5 -117t-149.5 -45q-122 0 -183.5 88t-32.5 230q33 165 148.5 248.5t301.5 83.5h140l22 111q20 105 -8.5 157.5t-105.5 52.5q-63 0 -116 -50.5t-67 -124.5l-191 1l-2 6q22 133 139.5 226.5t279.5 93.5q144 0 225 -96t47 -268 l-101 -502q-13 -66 -17 -122t1 -114h-203zM352 135q61 0 124.5 42t102.5 104l44 222h-142q-80 0 -142 -61t-78 -144q-16 -78 7 -120.5t84 -42.5zM549 1261l20 137q65 5 93 21t35 58q9 42 -21 62t-83 20l26 103q139 0 200 -46.5t42 -137.5q-13 -69 -55 -106.5t-96 -45.5 l-13 -65h-148z" />
<glyph unicode="&#x1ea4;" horiz-adv-x="1098" d="M757 368h-434l-174 -368h-203l717 1456h193l131 -1456h-203zM400 529h345l-44 620l-6 1zM770 1841h163l190 -253h-196l-96 159l-158 -159h-187l-2 6zM1253 2003h189l2 -5l-214 -246h-144z" />
<glyph unicode="&#x1ea5;" horiz-adv-x="922" d="M552 0q-2 40 -2 74t4 67q-57 -72 -129.5 -117t-149.5 -45q-122 0 -183.5 88t-32.5 230q33 165 148.5 248.5t301.5 83.5h140l22 111q20 105 -8.5 157.5t-105.5 52.5q-63 0 -116 -50.5t-67 -124.5l-191 1l-2 6q22 133 139.5 226.5t279.5 93.5q144 0 225 -96t47 -268 l-101 -502q-13 -66 -17 -122t1 -114h-203zM352 135q61 0 124.5 42t102.5 104l44 222h-142q-80 0 -142 -61t-78 -144q-16 -78 7 -120.5t84 -42.5zM592 1519h163l190 -253h-196l-96 159l-158 -159h-187l-2 6zM1075 1681h189l2 -5l-214 -246h-144z" />
<glyph unicode="&#x1ea6;" horiz-adv-x="1098" d="M757 368h-434l-174 -368h-203l717 1456h193l131 -1456h-203zM400 529h345l-44 620l-6 1zM1121 1577h-195l-96 159l-160 -159h-187l-2 6l287 247h163zM578 1741h-143l-118 251h195z" />
<glyph unicode="&#x1ea7;" horiz-adv-x="922" d="M552 0q-2 40 -2 74t4 67q-57 -72 -129.5 -117t-149.5 -45q-122 0 -183.5 88t-32.5 230q33 165 148.5 248.5t301.5 83.5h140l22 111q20 105 -8.5 157.5t-105.5 52.5q-63 0 -116 -50.5t-67 -124.5l-191 1l-2 6q22 133 139.5 226.5t279.5 93.5q144 0 225 -96t47 -268 l-101 -502q-13 -66 -17 -122t1 -114h-203zM352 135q61 0 124.5 42t102.5 104l44 222h-142q-80 0 -142 -61t-78 -144q-16 -78 7 -120.5t84 -42.5zM943 1255h-195l-96 159l-160 -159h-187l-2 6l287 247h163zM400 1419h-143l-118 251h195z" />
<glyph unicode="&#x1ea8;" horiz-adv-x="1098" d="M757 368h-434l-174 -368h-203l717 1456h193l131 -1456h-203zM400 529h345l-44 620l-6 1zM1114 1564h-181l-107 175l-177 -175h-174l-2 6l278 247h182zM1095 1696l17 119q54 4 78 16.5t31 47.5q7 36 -19 52.5t-71 16.5l23 91q117 0 169.5 -40t37.5 -117q-12 -60 -48 -91.5 t-81 -38.5l-12 -56h-125z" />
<glyph unicode="&#x1ea9;" horiz-adv-x="922" d="M552 0q-2 40 -2 74t4 67q-57 -72 -129.5 -117t-149.5 -45q-122 0 -183.5 88t-32.5 230q33 165 148.5 248.5t301.5 83.5h140l22 111q20 105 -8.5 157.5t-105.5 52.5q-63 0 -116 -50.5t-67 -124.5l-191 1l-2 6q22 133 139.5 226.5t279.5 93.5q144 0 225 -96t47 -268 l-101 -502q-13 -66 -17 -122t1 -114h-203zM352 135q61 0 124.5 42t102.5 104l44 222h-142q-80 0 -142 -61t-78 -144q-16 -78 7 -120.5t84 -42.5zM936 1244h-181l-107 175l-177 -175h-174l-2 6l278 247h182zM917 1376l17 119q54 4 78 16.5t31 47.5q7 36 -19 52.5t-71 16.5 l23 91q117 0 169.5 -40t37.5 -117q-12 -60 -48 -91.5t-81 -38.5l-12 -56h-125z" />
<glyph unicode="&#x1eaa;" horiz-adv-x="1098" d="M757 368h-434l-174 -368h-203l717 1456h193l131 -1456h-203zM400 529h345l-44 620l-6 1zM1109 1554h-179l-109 166l-175 -166h-171l-2 6l283 240h162zM1105 2035q-15 -72 -60.5 -120t-98.5 -48q-38 0 -84 39t-78 39q-21 0 -44 -29.5t-30 -65.5l-74 21q14 72 59.5 122.5 t98.5 50.5q29 0 80 -38t83 -38q20 0 42.5 27.5t30.5 64.5z" />
<glyph unicode="&#x1eab;" horiz-adv-x="922" d="M552 0q-2 40 -2 74t4 67q-57 -72 -129.5 -117t-149.5 -45q-122 0 -183.5 88t-32.5 230q33 165 148.5 248.5t301.5 83.5h140l22 111q20 105 -8.5 157.5t-105.5 52.5q-63 0 -116 -50.5t-67 -124.5l-191 1l-2 6q22 133 139.5 226.5t279.5 93.5q144 0 225 -96t47 -268 l-101 -502q-13 -66 -17 -122t1 -114h-203zM352 135q61 0 124.5 42t102.5 104l44 222h-142q-80 0 -142 -61t-78 -144q-16 -78 7 -120.5t84 -42.5zM931 1234h-179l-109 166l-175 -166h-171l-2 6l283 240h162zM927 1715q-15 -72 -60.5 -120t-98.5 -48q-38 0 -84 39t-78 39 q-21 0 -44 -29.5t-30 -65.5l-74 21q14 72 59.5 122.5t98.5 50.5q29 0 80 -38t83 -38q20 0 42.5 27.5t30.5 64.5z" />
<glyph unicode="&#x1eac;" horiz-adv-x="1098" d="M757 368h-434l-174 -368h-203l717 1456h193l131 -1456h-203zM400 529h345l-44 620l-6 1zM1085 1621l-5 -22h-161l-85 151l-146 -151h-158l5 23l260 232h118zM525 -333h-223l40 200h223z" />
<glyph unicode="&#x1ead;" horiz-adv-x="922" d="M552 0q-2 40 -2 74t4 67q-57 -72 -129.5 -117t-149.5 -45q-122 0 -183.5 88t-32.5 230q33 165 148.5 248.5t301.5 83.5h140l22 111q20 105 -8.5 157.5t-105.5 52.5q-63 0 -116 -50.5t-67 -124.5l-191 1l-2 6q22 133 139.5 226.5t279.5 93.5q144 0 225 -96t47 -268 l-101 -502q-13 -66 -17 -122t1 -114h-203zM352 135q61 0 124.5 42t102.5 104l44 222h-142q-80 0 -142 -61t-78 -144q-16 -78 7 -120.5t84 -42.5zM907 1299l-5 -22h-161l-85 151l-146 -151h-158l5 23l260 232h118zM369 -329h-223l40 200h223z" />
<glyph unicode="&#x1eae;" horiz-adv-x="1098" d="M757 368h-434l-174 -368h-203l717 1456h193l131 -1456h-203zM400 529h345l-44 620l-6 1zM1091 1792l2 -6q-15 -101 -97 -157.5t-204 -56.5q-114 0 -176.5 61t-38.5 153l2 6h149q-12 -56 7.5 -88t76.5 -32q50 0 85 34.5t46 85.5h148zM916 2005h145l2 -5l-171 -194h-109z " />
<glyph unicode="&#x1eaf;" horiz-adv-x="922" d="M552 0q-2 40 -2 74t4 67q-57 -72 -129.5 -117t-149.5 -45q-122 0 -183.5 88t-32.5 230q33 165 148.5 248.5t301.5 83.5h140l22 111q20 105 -8.5 157.5t-105.5 52.5q-63 0 -116 -50.5t-67 -124.5l-191 1l-2 6q22 133 139.5 226.5t279.5 93.5q144 0 225 -96t47 -268 l-101 -502q-13 -66 -17 -122t1 -114h-203zM352 135q61 0 124.5 42t102.5 104l44 222h-142q-80 0 -142 -61t-78 -144q-16 -78 7 -120.5t84 -42.5zM913 1470l2 -6q-15 -101 -97 -157.5t-204 -56.5q-114 0 -176.5 61t-38.5 153l2 6h149q-12 -56 7.5 -88t76.5 -32q50 0 85 34.5 t46 85.5h148zM738 1683h145l2 -5l-171 -194h-109z" />
<glyph unicode="&#x1eb0;" horiz-adv-x="1098" d="M757 368h-434l-174 -368h-203l717 1456h193l131 -1456h-203zM400 529h345l-44 620l-6 1zM1116 1845l2 -6q-21 -123 -106.5 -192.5t-212.5 -69.5q-117 0 -179.5 74.5t-36.5 188.5l3 5h142q-14 -68 8 -106t87 -38q58 0 99 41t53 103h141zM949 1880h-157l-126 213h205z" />
<glyph unicode="&#x1eb1;" horiz-adv-x="922" d="M552 0q-2 40 -2 74t4 67q-57 -72 -129.5 -117t-149.5 -45q-122 0 -183.5 88t-32.5 230q33 165 148.5 248.5t301.5 83.5h140l22 111q20 105 -8.5 157.5t-105.5 52.5q-63 0 -116 -50.5t-67 -124.5l-191 1l-2 6q22 133 139.5 226.5t279.5 93.5q144 0 225 -96t47 -268 l-101 -502q-13 -66 -17 -122t1 -114h-203zM352 135q61 0 124.5 42t102.5 104l44 222h-142q-80 0 -142 -61t-78 -144q-16 -78 7 -120.5t84 -42.5zM938 1523l2 -6q-21 -123 -106.5 -192.5t-212.5 -69.5q-117 0 -179.5 74.5t-36.5 188.5l3 5h142q-14 -68 8 -106t87 -38 q58 0 99 41t53 103h141zM771 1558h-157l-126 213h205z" />
</font>
</defs>
</svg>
